Статистика раздачи
Размер:  415 MB   |    Зарегистрирован:  9 месяцев 2 дня   |    Скачан:  0 раз

Полного источника не было: Никогда

Личеров:  1  [  0 KB/s  ]  
 
   
 
 

karapuz ®

Пол:
Не указан
Стаж:
9 месяцев 3 дня
Сообщений:
128

Скуби-Ду! Ужасные Праздники / Scooby-Doo! Haunted Holidays
Страна: США
Жанр: ужасы, детектив, комедия, семейный
Продолжительность: 00:21:49
Год выпуска: 2012
Перевод: Одноголосый закадровый (SerKuS aka Shaggy-rocker)
Русские субтитры: есть
Режиссёр: Виктор Кук / Victor Cook
Описание: Рождественский специальный выпуск.
Скуби-Ду и команда участвуют в рождественском параде, где встречаются со Зловещим Снеговиком. Из-за чего всем грозит опасность.
Доп. информация: Озвучил по субтитрам yaroslav230596 (надеюсь он не против,я заменил лишь некоторые слова,но смысл остался тем же).Озвучивал первый раз, так что не судите строго надеюсь понравится.
Семпл: http://multi-up.com/996647
Ссылка на предыдущие и альтернативные раздачи
Качество: HDTVRip
Формат: AVI
Видео: 720x400 (1.80:1), 25 fps, XviD build 65 ~2065 kbps avg, 0.29 bit/pixel
Аудио #1: 48 kHz, AC3 Dolby Digital, 2/0 (L,R) ch, ~192 kbps - VO
Аудио #2: 48 kHz, AC3 Dolby Digital, 2/0 (L,R) ch, ~192 kbps - ENG
Субтитры 1: Русские - перевод: yaroslav230596
Субтитры 2: Английские

Подробные технические данные

Общее
Полное имя : D:\Im\Скуби-Ду\Haunted Holidays\Scooby-Doo! Haunted Holidays.2012.HDTVRip\Scooby-Doo! Haunted Holidays.2012.HDTVRip.avi
Формат : AVI
Формат/Информация : Audio Video Interleave
Размер файла : 415 Мбайт
Продолжительность : 21 м.
Общий поток : 2656 Кбит/сек
Программа кодирования : VirtualDubMod 1.5.10.3 (build 2550/release)
Библиотека кодирования : VirtualDubMod build 2550/release
Видео
Идентификатор : 0
Формат : MPEG-4 Visual
Профиль формата : Advanced Simple@L5
Параметр BVOP формата : 2
Параметр QPel формата : Нет
Параметр GMC формата : Без точки перехода
Параметр матрицы формата : Выборочная
Идентификатор кодека : XVID
Идентификатор кодека/Подсказка : XviD
Продолжительность : 21 м.
Битрейт : 2066 Кбит/сек
Ширина : 720 пикселей
Высота : 400 пикселей
Соотношение сторон : 16:9
Частота кадров : 25,000 кадров/сек
Цветовое пространство : YUV
Субдискретизация насыщенности : 4:2:0
Битовая глубина : 8 бит
Тип развёртки : Прогрессивная
Метод сжатия : С потерями
Бит/(Пиксели*Кадры) : 0.287
Размер потока : 323 Мбайт (78%)
Библиотека кодирования : XviD 65
Аудио #1
Идентификатор : 1
Формат : AC-3
Формат/Информация : Audio Coding 3
Расширение режима : CM (complete main)
Параметр Endianness формата : Big
Идентификатор кодека : 2000
Продолжительность : 21 м.
Вид битрейта : Постоянный
Битрейт : 192 Кбит/сек
Каналы : 2 канала
Расположение каналов : Front: L R
Частота : 48,0 КГц
Битовая глубина : 16 бит
Метод сжатия : С потерями
Размер потока : 30,0 Мбайт (7%)
Выравнивание : Разделение по промежуткам
Продолжительность промежутка : 40 мс. (1,00 видеокадр)
Время предзагрузки промежутка : 500 мс.
Аудио #2
Идентификатор : 2
Формат : AC-3
Формат/Информация : Audio Coding 3
Расширение режима : CM (complete main)
Параметр Endianness формата : Big
Идентификатор кодека : 2000
Продолжительность : 21 м.
Вид битрейта : Постоянный
Битрейт : 384 Кбит/сек
Каналы : 2 канала
Расположение каналов : Front: L R
Частота : 48,0 КГц
Битовая глубина : 16 бит
Метод сжатия : С потерями
Размер потока : 60,0 Мбайт (14%)
Выравнивание : Разделение по промежуткам
Продолжительность промежутка : 40 мс. (1,00 видеокадр)
Время предзагрузки промежутка : 500 мс.

Скриншоты

[cybertorrent.ru].t1974.torrent 
Торрент: Зарегистрирован [ 2018-02-16 08:44 ] · A8366F7287FEB5BC24B48E0CE6CA498C439D3C2A

Скачать .torrent

Скачать

17 KB

Статус: проверено
Скачан: 0 раз
Размер: 415 MB
Профиль [ЛС]
Показать сообщения:    

Текущее время: 18-Ноя 12:47

Часовой пояс: UTC ± 0



Вы не можете начинать темы
Вы не можете отвечать на сообщения
Вы не можете редактировать свои сообщения
Вы не можете удалять свои сообщения
Вы не можете голосовать в опросах
Вы не можете прикреплять файлы к сообщениям
Вы можете скачивать файлы
Torrents24.ru открытый BitTorrent Torrents24.pl открытый BitTorrent CyberTorrent.ru открытый BitTorrent BtList.ru рейтинг BitTorrent трекеров Яндекс.Метрика