Статистика раздачи
Размер:  37,9 GB   |    Зарегистрирован:  7 месяцев 5 дней   |    Скачан:  0 раз

Полного источника не было: Никогда

 
   
 
 

firebird ®

Пол:
Не указан
Стаж:
7 месяцев 6 дней
Сообщений:
334

Покемон: XY / Pokemon the Series: XY- Страна: Япония / США
Год выпуска: 2014 г.
Жанр: приключения, комедия, фэнтези
Тип: TV-сериал
Серии: 48 эпизодов по 21 минуте
Автор оригинала: Тадзири Сатоси
Режиссер оригинала: Юяма Кунихико
Студия: OLM-Релиз подготовлен группой Free Releasers Team "SORA"
  • Сведение звука: Ampho_dub
  • Перевод и озвучивание: SDI Media
  • Роли озвучивали: Иван Калинин, Мария Иващенко, Лариса Некипелова, Наталья Грачева, Петр Иващенко, Дарья Фролова, Дмитрий Филимонов, Ольга Шорохова, Наталья Терешкова, Александр Дасевич, Ольга Зверева, Татьяна Шарко, Сергей Смирнов, Андрей Гриневич-Описание: Пришло время для Эша и Пикачу начать их новое путешествие в регионе Калос. В пути к ним присоединятся новые друзья: гениальный изобретатель Клемонт, его младшая сестра Бонни и тренер Серена, для которой это путешествие — первое. Эш сразу же пытается сразиться на стадионе города Лумиоз, но терпит неудачу, так как робот выгоняет его! Помимо битв на стадионах, Эш и его друзья будут изучать этот уникальный регион, встречать незнакомые им виды покемонов и исследовать новую тайну!-Качество: WEBRip | Формат: MKV | Энкод: iTunes
    Тип релиза: Без хардсаба | Совместимость с бытовыми плеерами: Нет
    Видео: x264 (8 bit) 1440x1080 (@1912x1080), ~5 025 kbps, 29.970 fps
    в составе контейнера:
    Аудио 1: AC3, 192 kbps, 48 kHz, 2 ch [Russian] Озвучка 1: [DUB] - Многоголосый, Дублированный [SDI Media]
    Аудио 2: AC3, 192 kbps, 48 kHz, 2 ch [English] Озвучка 2: [DUB] - Многоголосый, Дублированный [Оригинал]

    Список эпизодов

    01. Регион Калос. Где рождаются мечты и начинаются приключения!
    02. Погоня в Люмиос Сити!
    03. Битва за присутствие в воздухе!
    04. Новая шокирующая дружба!
    05. Бурная гим-битва в Санталун-сити!
    06. Битва на тонком льду!
    07. Догоняющий на скачках Райхорнов!
    08. Стрижка для Фурфру!
    09. У Клемонта есть Секрет!
    10. Мега безумие с мега мяутом!
    11. Приключения в бамбуковом лесу!
    12. В погоне за контрабандистом покемонов!
    13. Хаос в детском саду!
    14. Скрываясь от грозы!
    15. Аппетит к битве!
    16. Неразбериха с сумками!
    17. Немного мудрости ниндзя!
    18. Пробуждение спящего гиганта!
    19. Заговор на покорение
    20. Зарабатывая титулы в замке!
    21. Новая звезда покевидения!
    22. В поисках золота!
    23. Назад, в холод!
    24. Карабкаясь по стенам!
    25. Кулинарный поединок!
    26. В поисках цветка фей!
    27. Узы Эволюции!
    28. Герои! Хорошие и не очень!
    29. Мега открытия!
    30. Пещера испытаний!
    31. Ураган Ауры!
    32. Зов из-за пределов ауры!
    33. Узы мега-эволюции!
    34. Лесной чемпион!
    35. Битвы в небе!
    36. Пещера зеркал!
    37. Укрепление лесной дружбы!
    38. Лето открытия!
    39. Блокбастеры третьего дня!
    40. Ориентирование с покемонами в тумане!
    41. Бой за зал Славы!
    42. Корни мега-эволюции!
    43. Время боя в гиме Шалур!
    44. Ссора наследников!
    45. Плакса справляется с хаосом!
    46. Рождение мечты исполнителя!
    47. Школьное воссоединение!
    48. Бонни на защите!

    Подробные тех. данные

    General
    Unique ID : 249146299808789139908331832081169565718 (0xBB6FD4F998127B8C9DFC22A4D7C0C816)
    Complete name : [FRT Sora] Pokemon XY [1080p]\[FRT Sora] Pokemon S17 E01 [1080p-x264-AC3].mkv
    Format : Matroska
    Format version : Version 4 / Version 2
    File size : 826 MiB
    Duration : 21 min 20 s
    Overall bit rate : 5 412 kb/s
    Encoded date : UTC 2016-10-06 16:13:07
    Writing application : mkvmerge v9.4.2 ('So High') 64bit
    Writing library : libebml v1.3.4 + libmatroska v1.4.5
    Video
    ID : 1
    Format : AVC
    Format/Info : Advanced Video Codec
    Format profile : High@L4
    Format settings, CABAC : Yes
    Format settings, ReFrames : 5 frames
    Codec ID : V_MPEG4/ISO/AVC
    Duration : 21 min 20 s
    Bit rate : 5 025 kb/s
    Width : 1 440 pixels
    Height : 1 080 pixels
    Display aspect ratio : 16:9
    Frame rate mode : Constant
    Frame rate : 29.970 (29970/1000) FPS
    Color space : YUV
    Chroma subsampling : 4:2:0
    Bit depth : 8 bits
    Scan type : Progressive
    Bits/(Pixel*Frame) : 0.108
    Stream size : 767 MiB (93%)
    Language : English
    Default : Yes
    Forced : Yes
    Color range : Limited
    Color primaries : BT.709
    Transfer characteristics : BT.709
    Matrix coefficients : BT.709
    Audio #1
    ID : 2
    Format : AC-3
    Format/Info : Audio Coding 3
    Mode extension : CM (complete main)
    Format settings, Endianness : Big
    Codec ID : A_AC3
    Duration : 21 min 20 s
    Bit rate mode : Constant
    Bit rate : 192 kb/s
    Channel(s) : 2 channels
    Channel positions : Front: L R
    Sampling rate : 48.0 kHz
    Frame rate : 31.250 FPS (1536 spf)
    Compression mode : Lossy
    Stream size : 29.3 MiB (4%)
    Language : Russian
    Default : Yes
    Forced : No
    Audio #2
    ID : 3
    Format : AC-3
    Format/Info : Audio Coding 3
    Mode extension : CM (complete main)
    Format settings, Endianness : Big
    Codec ID : A_AC3
    Duration : 21 min 20 s
    Bit rate mode : Constant
    Bit rate : 192 kb/s
    Channel(s) : 2 channels
    Channel positions : Front: L R
    Sampling rate : 48.0 kHz
    Frame rate : 31.250 FPS (1536 spf)
    Compression mode : Lossy
    Stream size : 29.3 MiB (4%)
    Language : English
    Default : No
    Forced : No

    Скриншоты

    Отличия от других раздач

    http://cybertorrent.ru/viewtopic.php?t=4691508 - Наличие озвучки, 1080p
    [cybertorrent.ru].t1987.torrent 
    Торрент: Зарегистрирован [ 2018-02-16 08:44 ] · D3C7AC568F5F5BC81481998C9D8AB5DA21701BE0

    Скачать .torrent

    Скачать

    99 KB

    Статус: проверено
    Скачан: 0 раз
    Размер: 37,9 GB
  • Профиль [ЛС]
    Показать сообщения:    

    Текущее время: 21-Сен 17:45

    Часовой пояс: UTC ± 0



    Вы не можете начинать темы
    Вы не можете отвечать на сообщения
    Вы не можете редактировать свои сообщения
    Вы не можете удалять свои сообщения
    Вы не можете голосовать в опросах
    Вы не можете прикреплять файлы к сообщениям
    Вы можете скачивать файлы
    Torrents24.ru открытый BitTorrent Torrents24.pl открытый BitTorrent CyberTorrent.ru открытый BitTorrent BtList.ru рейтинг BitTorrent трекеров Яндекс.Метрика