Статистика раздачи
Нет
 
     
 
 

MAGNAT ®

Пол:
Мужской
Стаж:
2 года 6 месяцев
Сообщений:
11696

Откуда: Москва


Витрина DC: Адам Стрэндж / DC Showcase. Adam Strange
-- Страна: США.
Жанр: Мультфильм, короткометражка, фантастика, боевик.
Продолжительность: 00:16:05
Год выпуска: 2020.
Перевод: Любительский (многоголосый закадровый) NewStation
Русские субтитры: Есть.
Режиссёр: Батч Лукич / Butch Lukic
Роли озвучивали: Сонни Дей, Рэй Чейз, Фред Таташиор, Чарли Уэбер.--Описание: На горной ледяной планете Адам Стрендж ждёт своего шанса вернуться в свой мир, напиваясь до забвения. Когда шахтеры высвобождают смертельную силу, всё становится ещё хуже.-Качество: BDRemux 1080p
Формат: MKV
Видео кодек: AVC
Аудио кодек: AC3
Видео: h264 / 1920x1080 / 23.976 / 11.9 kb/s / 0.239 bit/pixel / 8 bits
Аудио1: AC3, 3/2 (L,C,R,SL,SR)+LFE ch, 640 kbps........................................... NewStation
Аудио2: AC3, 3/2 (L,C,R,SL,SR)+LFE ch, 640 kbps........................................... English
Субтитры: Русские (Áлексис), English, English-SDH.
-

MInfo

General
Unique ID : 243313338269968602545039763300122113967 (0xB70C71C47ADAA8DBB7D4E982B30437AF)
Complete name : D:\Torrents\DC Showcase. Adam Strange (2020) BDRemux 1080p (NewStation).mkv
Format : Matroska
Format version : Version 4
File size : 1.48 GiB
Duration : 16 min 5 s
Overall bit rate mode : Variable
Overall bit rate : 13.2 Mb/s
Encoded date : UTC 2020-06-11 21:26:51
Writing application : mkvmerge v47.0.0 ('Black Flag') 64-bit
Writing library : libebml v1.3.10 + libmatroska v1.5.2
Video
ID : 1
Format : AVC
Format/Info : Advanced Video Codec
Format profile : High@L4.1
Format settings : CABAC / 4 Ref Frames
Format settings, CABAC : Yes
Format settings, Reference : 4 frames
Codec ID : V_MPEG4/ISO/AVC
Duration : 16 min 5 s
Bit rate mode : Variable
Bit rate : 11.9 Mb/s
Maximum bit rate : 40.0 Mb/s
Width : 1 920 pixels
Height : 1 080 pixels
Display aspect ratio : 16:9
Frame rate mode : Constant
Frame rate : 23.976 (24000/1001) FPS
Color space : YUV
Chroma subsampling : 4:2:0
Bit depth : 8 bits
Scan type : Progressive
Bits/(Pixel*Frame) : 0.239
Stream size : 1.34 GiB (90%)
Language : English
Default : Yes
Forced : No
Audio #1
ID : 2
Format : AC-3
Format/Info : Audio Coding 3
Commercial name : Dolby Digital
Codec ID : A_AC3
Duration : 16 min 5 s
Bit rate mode : Constant
Bit rate : 640 kb/s
Channel(s) : 6 channels
Channel layout : L R C LFE Ls Rs
Sampling rate : 48.0 kHz
Frame rate : 31.250 FPS (1536 SPF)
Compression mode : Lossy
Stream size : 73.7 MiB (5%)
Title : NewStation
Language : Russian
Service kind : Complete Main
Default : Yes
Forced : No
Audio #2
ID : 3
Format : AC-3
Format/Info : Audio Coding 3
Commercial name : Dolby Digital
Codec ID : A_AC3
Duration : 16 min 5 s
Bit rate mode : Constant
Bit rate : 640 kb/s
Channel(s) : 6 channels
Channel layout : L R C LFE Ls Rs
Sampling rate : 48.0 kHz
Frame rate : 31.250 FPS (1536 SPF)
Compression mode : Lossy
Stream size : 73.7 MiB (5%)
Title : Original
Language : English
Service kind : Complete Main
Default : No
Forced : No
Text #1
ID : 4
Format : UTF-8
Codec ID : S_TEXT/UTF8
Codec ID/Info : UTF-8 Plain Text
Duration : 13 min 50 s
Bit rate : 46 b/s
Count of elements : 100
Stream size : 4.71 KiB (0%)
Title : Áлексис
Language : Russian
Default : No
Forced : No
Text #2
ID : 5
Format : UTF-8
Codec ID : S_TEXT/UTF8
Codec ID/Info : UTF-8 Plain Text
Duration : 12 min 28 s
Bit rate : 28 b/s
Count of elements : 97
Stream size : 2.57 KiB (0%)
Title : English
Language : English
Default : No
Forced : No
Text #3
ID : 6
Format : UTF-8
Codec ID : S_TEXT/UTF8
Codec ID/Info : UTF-8 Plain Text
Duration : 14 min 13 s
Bit rate : 32 b/s
Count of elements : 146
Stream size : 3.36 KiB (0%)
Title : English-SDH
Language : English
Default : No
Forced : No

Скриншоты


Профиль [ЛС]
Показать сообщения:    

Текущее время: 20-Окт 04:57

Часовой пояс: UTC ± 0



Вы не можете начинать темы
Вы не можете отвечать на сообщения
Вы не можете редактировать свои сообщения
Вы не можете удалять свои сообщения
Вы не можете голосовать в опросах
Вы не можете прикреплять файлы к сообщениям
Вы не можете скачивать файлы