Статистика раздачи
Нет
 
     
 
 

MAGNAT ®

Пол:
Мужской
Стаж:
2 года 6 месяцев
Сообщений:
11696

Откуда: Москва

Сказ о Чапаеве
Страна: СССР
Жанр: мультфильм
Продолжительность: 00:23:41
Год выпуска: 1958
Режиссёр: Михаил Цехановский
Роли озвучивали: Борис Бабочкин, Андрей Абрикосов, Владимир Грибков, Евгения Козырева
Описание: Сказ о Чапаеве, в котором легендарный комдив не погибает, переплывая Урал. На помощь ему приходят силы природы, и Василий Иванович становится былинным богатырём.
Качество: WEBRip
Формат: AVI
Видео: 2391 kbps, 704х512 (1.375), 25.000 fps, MPEG-4 Visual (XviD)
Аудио: 128 kbps, 44.1 kHz, 2 channels, MPEG Audio (MP3)
Субтитры: отсутствуют

Подробные технические данные

General
Complete name : Сказ о Чапаеве (1958).avi
Format : AVI
Format/Info : Audio Video Interleave
File size : 429 MiB
Duration : 23mn 41s
Overall bit rate : 2 529 Kbps
Writing application : VirtualDubMod 1.5.10.2 (build 2540/release)
Writing library : VirtualDub build 35491/release
Video
ID : 0
Format : MPEG-4 Visual
Format profile : Advanced Simple@L5
Format settings, BVOP : 2
Format settings, QPel : No
Format settings, GMC : No warppoints
Format settings, Matrix : Default (H.263)
Codec ID : XVID
Codec ID/Hint : XviD
Duration : 23mn 41s
Bit rate : 2 391 Kbps
Width : 704 pixels
Height : 512 pixels
Display aspect ratio : 1.375
Frame rate : 25.000 fps
Color space : YUV
Chroma subsampling : 4:2:0
Bit depth : 8 bits
Scan type : Progressive
Compression mode : Lossy
Bits/(Pixel*Frame) : 0.265
Stream size : 405 MiB (95%)
Writing library : XviD 73
Audio
ID : 1
Format : MPEG Audio
Format version : Version 1
Format profile : Layer 3
Codec ID : 55
Codec ID/Hint : MP3
Duration : 23mn 41s
Bit rate mode : Constant
Bit rate : 128 Kbps
Channel(s) : 2 channels
Sampling rate : 44.1 KHz
Compression mode : Lossy
Stream size : 21.7 MiB (5%)
Alignment : Split accross interleaves
Interleave, duration : 40 ms (1.00 video frame)
Interleave, preload duration : 500 ms
Writing library : LAME3.99.5

Скриншоты

Профиль [ЛС]
Показать сообщения:    

Текущее время: 20-Окт 04:55

Часовой пояс: UTC ± 0



Вы не можете начинать темы
Вы не можете отвечать на сообщения
Вы не можете редактировать свои сообщения
Вы не можете удалять свои сообщения
Вы не можете голосовать в опросах
Вы не можете прикреплять файлы к сообщениям
Вы не можете скачивать файлы