Статистика раздачи
Размер:  2,18 GB   |    Зарегистрирован:  3 месяца 7 дней   |    Скачан:  0 раз

Полного источника не было: Никогда

 
   
 
 

lopster ®

Пол:
Не указан
Стаж:
3 месяца 7 дней
Сообщений:
612

Ёлки 3- Жанр: семейный, комедия
Год выпуска: 2013
Продолжительность: 01:36:50
Режиссёр: Ольга Харина, Дмитрий Киселёв, Александр Котт
В ролях: Иван Ургант, Сергей Светлаков, Гоша Куценко, Валентин Гафт, Татьяна Догилева, Пётр Фёдоров, Анна Чиповская, Мария Шукшина, Константин Хабенский, Антон Богданов
Описание: Спустя два года они снова с нами: любимые герои "Ёлок" в самых невероятных новогодних историях. Боря и Женя, чьи годовалые дети в канун праздника доведут друзей до психушки. Маленькая девочка Настя, чьи родители разлучат ее влюбленных друг в друга собак. Лыжник и сноубордист в самой экстремальной в их жизни гонке - от военкома. И профессор из Екатеринбурга Андрей, чья любвеобильность вновь не доведет его до добра, а только до проруби в минус 30.
Под бой курантов этих и новых героев "Ёлок" объединит бумеранг добра. Завершая свой круг, он заслуженно вернётся к каждому, кто его однажды запустил - кому улыбками и объятиями любимых и друзей, кому - праздничным настроением и соответствующим градусу состоянием, а кому-то... телефоном в холодце!
Сэмпл: http://sendfile.su/1309731

Качество видео: BDRip-AVC (Ёлки 3 2013 Blu-Ray disc 1080p)
Формат видео: MKV
Видео: 1112x468 (2.40:1), 24 fps, ~2773 kbps avg, 0,222 bit/pixel
Аудио: 48 kHz, AC3 Dolby Digital, 3/2 (L,C,R,l,r) + LFE ch, ~448kbps

MediaInfo

General
Unique ID : 249282589884796940989953172170621874138 (0xBB8A1498329F83A38279A8601C886FDA)
Format : Matroska
Format version : Version 4 / Version 2
File size : 2.18 GiB
Duration : 1h 36mn
Overall bit rate : 3 222 Kbps
Encoded date : UTC 2017-02-08 11:33:09
Writing application : mkvmerge v9.8.0 ('Kuglblids') 64bit
Writing library : libebml v1.3.4 + libmatroska v1.4.5
Video #1
ID : 1
Format : AVC
Format/Info : Advanced Video Codec
Format profile : High@L4.1
Format settings, CABAC : Yes
Format settings, ReFrames : 11 frames
Codec ID : V_MPEG4/ISO/AVC
Duration : 1h 36mn
Bit rate : 2 773 Kbps
Width : 1 112 pixels
Height : 468 pixels
Display aspect ratio : 2.40:1
Frame rate mode : Constant
Frame rate : 24.000 fps
Color space : YUV
Chroma subsampling : 4:2:0
Bit depth : 8 bits
Scan type : Progressive
Bits/(Pixel*Frame) : 0.222
Stream size : 1.88 GiB (86%)
Writing library : x264 core 148 r2638 7599210
Encoding settings : cabac=1 / ref=11 / deblock=1:-3:-2 / analyse=0x3:0x133 / me=umh / subme=10 / psy=1 / psy_rd=1.00:0.00 / mixed_ref=1 / me_range=32 / chroma_me=1 / trellis=2 / 8x8dct=1 / cqm=0 / deadzone=21,11 / fast_pskip=1 / chroma_qp_offset=-2 / threads=6 / lookahead_threads=1 / sliced_threads=0 / nr=0 / decimate=1 / interlaced=0 / bluray_compat=0 / constrained_intra=0 / bframes=9 / b_pyramid=2 / b_adapt=2 / b_bias=0 / direct=1 / weightb=1 / open_gop=0 / weightp=2 / keyint=250 / keyint_min=23 / scenecut=40 / intra_refresh=0 / rc_lookahead=60 / rc=2pass / mbtree=1 / bitrate=2773 / ratetol=1.0 / qcomp=0.60 / qpmin=0 / qpmax=69 / qpstep=4 / cplxblur=20.0 / qblur=0.5 / ip_ratio=1.40 / aq=3:1.00
Language : Russian
Default : Yes
Forced : No
Audio #2
ID : 2
Format : AC-3
Format/Info : Audio Coding 3
Mode extension : CM (complete main)
Format settings, Endianness : Big
Codec ID : A_AC3
Duration : 1h 36mn
Bit rate mode : Constant
Bit rate : 448 Kbps
Channel(s) : 6 channels
Channel positions : Front: L C R, Side: L R, LFE
Sampling rate : 48.0 KHz
Frame rate : 31.250 fps (1536 spf)
Compression mode : Lossy
Stream size : 310 MiB (14%)
Language : Russian
Default : Yes
Forced : No

лог

raw [info]: 1112x468p 1:1 @ 10000000/416667 fps (cfr)
x264 [info]: using SAR=1/1
x264 [info]: using cpu capabilities: MMX2 SSE2Fast SSSE3 SSE4.2 AVX XOP FMA4 FMA3 LZCNT BMI1
x264 [info]: profile High, level 4.1
x264 [info]: frame I:1670 Avg QP:15.22 size: 85961
x264 [info]: frame P:37322 Avg QP:19.09 size: 27865
x264 [info]: frame B:100452 Avg QP:22.01 size: 8264
x264 [info]: consecutive B-frames: 4.8% 5.5% 12.3% 38.1% 17.1% 14.9% 3.8% 1.7% 1.2% 0.7%
x264 [info]: mb I I16..4: 6.3% 66.9% 26.8%
x264 [info]: mb P I16..4: 2.2% 14.5% 3.1% P16..4: 37.2% 20.0% 14.1% 1.1% 0.4% skip: 7.4%
x264 [info]: mb B I16..4: 0.3% 1.8% 0.5% B16..8: 37.1% 11.5% 3.2% direct: 6.4% skip:39.2% L0:42.1% L1:42.7% BI:15.1%
x264 [info]: 8x8 transform intra:71.5% inter:67.9%
x264 [info]: coded y,uvDC,uvAC intra: 75.7% 80.9% 54.3% inter: 24.0% 25.3% 8.5%
x264 [info]: i16 v,h,dc,p: 34% 18% 6% 42%
x264 [info]: i8 v,h,dc,ddl,ddr,vr,hd,vl,hu: 16% 12% 7% 7% 11% 12% 12% 11% 12%
x264 [info]: i4 v,h,dc,ddl,ddr,vr,hd,vl,hu: 26% 10% 5% 7% 12% 11% 11% 9% 10%
x264 [info]: i8c dc,h,v,p: 36% 25% 22% 17%
x264 [info]: Weighted P-Frames: Y:4.4% UV:2.4%
x264 [info]: ref P L0: 49.2% 13.7% 14.4% 6.2% 4.4% 3.3% 2.8% 1.8% 1.5% 1.3% 1.2% 0.3% 0.0%
x264 [info]: ref B L0: 74.8% 10.4% 5.3% 2.9% 2.0% 1.5% 1.3% 0.9% 0.5% 0.2%
x264 [info]: ref B L1: 93.1% 6.9%
x264 [info]: kb/s:2772.56
x264 [total]: encoded 139444 frames, 8.56 fps, 2772.56 kb/s

Скриншоты


[cybertorrent.ru].t199.torrent 
Торрент: Зарегистрирован [ 2018-02-15 15:34 ] · 032B62D9D0F3DBC6737704A4A1F45AE8F162C2D7

Скачать .torrent

Скачать

11 KB

Статус: проверено
Скачан: 0 раз
Размер: 2,18 GB
Профиль [ЛС]
Показать сообщения:    

Текущее время: 23-Май 07:09

Часовой пояс: UTC ± 0



Вы не можете начинать темы
Вы не можете отвечать на сообщения
Вы не можете редактировать свои сообщения
Вы не можете удалять свои сообщения
Вы не можете голосовать в опросах
Вы не можете прикреплять файлы к сообщениям
Вы можете скачивать файлы