Статистика раздачи
Нет
 
     
 
 

MAGNAT ®

Пол:
Мужской
Стаж:
2 года 8 месяцев
Сообщений:
13012

Откуда: Москва

Динглы / The Dingles
Страна: Канада
Жанр: мультфильм
Продолжительность: 00:07:51
Год выпуска: 1988
Перевод: субтитры (alex.n42)
Русские субтитры: есть
Режиссёр: Лес Дрю / Les Drew
Текст читает: Эмма Ливайн / Emma Levine
Описание: По детской книжке Хелен Левчук.
Как тётушка по имени Дорис Дингл и три её кошки - Дэйо, Донна и ДиДи - спасались от внезапно налетевшего урагана.
Качество: WEBRip
Формат: AVI
Видео: 2379 kbps, 720х528 (4:3), 24.000 fps, MPEG-4 Visual (XviD)
Аудио: 192 kbps, 44.1 kHz, 2 channels, MPEG Audio (MP3)
Субтитры: softsub (SRT)

Подробные технические данные

General
Complete name : The Dingles (1988).avi
Format : AVI
Format/Info : Audio Video Interleave
File size : 145 MiB
Duration : 7mn 51s
Overall bit rate : 2 581 Kbps
Writing application : VirtualDubMod 1.5.10.2 (build 2540/release)
Writing library : VirtualDubMod build 2540/release
Video
ID : 0
Format : MPEG-4 Visual
Format profile : Advanced Simple@L5
Format settings, BVOP : 2
Format settings, QPel : No
Format settings, GMC : No warppoints
Format settings, Matrix : Default (H.263)
Codec ID : XVID
Codec ID/Hint : XviD
Duration : 7mn 51s
Bit rate : 2 379 Kbps
Width : 720 pixels
Height : 528 pixels
Display aspect ratio : 4:3
Frame rate : 24.000 fps
Color space : YUV
Chroma subsampling : 4:2:0
Bit depth : 8 bits
Scan type : Progressive
Compression mode : Lossy
Bits/(Pixel*Frame) : 0.261
Stream size : 134 MiB (92%)
Writing library : XviD 64
Audio
ID : 1
Format : MPEG Audio
Format version : Version 1
Format profile : Layer 3
Codec ID : 55
Codec ID/Hint : MP3
Duration : 7mn 51s
Bit rate mode : Constant
Bit rate : 192 Kbps
Channel(s) : 2 channels
Sampling rate : 44.1 KHz
Compression mode : Lossy
Stream size : 10.8 MiB (7%)
Alignment : Split accross interleaves
Interleave, duration : 42 ms (1.00 video frame)
Interleave, preload duration : 500 ms

Скриншоты

Пример субтитров

1
00:00:22,600 --> 00:00:25,030
ДИНГЛЫ
2
00:00:39,790 --> 00:00:42,280
У Дорис Дингл было три кошки.
3
00:00:42,530 --> 00:00:43,560
Дэйо,
4
00:00:43,800 --> 00:00:44,500
Донна
5
00:00:44,900 --> 00:00:45,800
и ДиДи.
6
00:00:46,200 --> 00:00:49,830
И она любила их всем сердцем.
7
00:01:03,520 --> 00:01:10,430
Донна, гордая сиамка, зачастую
проводила время, перебирая
свою коллекцию птичьих перьев.
8
00:01:20,730 --> 00:01:24,200
ДиДи предпочитал махать лапой
перед лицом спящей Дорис Дингл,
9
00:01:26,860 --> 00:01:31,490
пока Дорис не раскрывала рот так широко,
что ДиДи мог сосчитать её пломбы.
10
00:01:33,980 --> 00:01:39,130
Дэйо был просто славным парнем,
который копал проход в Китай.
11
00:01:40,260 --> 00:01:42,760
Когда Дорис звала его,
она кричала:
12
00:01:43,310 --> 00:01:44,070
- Дэйо!
13
00:01:45,230 --> 00:01:46,230
- Дэйо!
14
00:01:47,680 --> 00:01:53,060
и он бежал, подпрыгивая,
подскакивая и кувыркаясь.
15
00:02:02,660 --> 00:02:05,720
Каждый день был чудесным
для Динглов.
16
00:02:06,810 --> 00:02:08,880
Но любимым временем был завтрак.
Профиль [ЛС]
Показать сообщения:    

Текущее время: 01-Дек 04:15

Часовой пояс: UTC ± 0



Вы не можете начинать темы
Вы не можете отвечать на сообщения
Вы не можете редактировать свои сообщения
Вы не можете удалять свои сообщения
Вы не можете голосовать в опросах
Вы не можете прикреплять файлы к сообщениям
Вы не можете скачивать файлы