Статистика раздачи
Размер:  5,02 GB   |    Зарегистрирован:  4 месяца 27 дней   |    Скачан:  0 раз

Полного источника не было: Никогда

 
   
 
 

Gomer ®

Пол:
Не указан
Стаж:
5 месяцев
Сообщений:
40

Гриффины / Family Guy
Страна: США
Жанр: Комедия, Пародия, Сатира
Продолжительность: ~20 минут
Год выпуска: 2013-2014
Перевод: Профессиональный (многоголосый закадровый)
Русские субтитры: нет
Режиссёр: Сет МакФарлейн / Seth MacFarlane
Роли озвучивали: Олег Форостенко - Питер, Кливленд и другие.
Илья Хвостиков - Брайан, Стьюи, Куагмир и другие.
Людмила Ильина - все женские и детские роли.
Описание: "Гриффины" - анимационное ТВ-шоу, созданное Сетом МакФарлейном для телеканала FOX. Как нетрудно догадаться, главными героями шоу является семейка Гриффинов: тупой, но полный сумасшедших идей, составляющих львиную долю шуток сериала, отец семейства Питер; его любящая и терпеливая жена Лоис, всеми силами пытающаяся превратить Гриффинов в нормальную семью; их интеллектуально развитый не по годам, вынашивающий идею мирового господства младший сын Стьюи; дочь-ботаник, обречённая из-за этого на одиночество и непонимание как в школе так и дома, Мэг; и 13-ти летний отсталый в развитии лет на 10, сын Крис. Также полноценным членом семьи является пёс Брайан - склонный к меланхолии эстет, спокойно наблюдающий с бокалом вина в лапе над приключениями Питера и остальных членов семьи (и это при всём притом, что остальные собаки в сериале не являются очеловеченными).
Список серий:
01. Finders Keepers (Искатели сокровища)
02. Vestigial Peter (Рудиментарный Питер)
03. Quagmire's Quagmire (Куагмиру Куагмир)
04. A Fistful of Meg (Пригоршня для Мэг)
05. Boopa-Dee Bappa-Dee (Бупа-Ди Баппа-Ди)
06. Life of Brian (Жизнь Брайана)
07. Into Harmony's Way (На пути к гармонии)
08. Christmas Guy (Рождество у Гриффинов)
09. Peter Problems (Проблемы Питера)
10. Grimm Job (Работа Гримм)
11. Brian's a Bad Father (Брайан — плохой отец)
12. Mom's the Word (Слово мамы)
13. 3 Acts of God (3 Закона Божьих)
14. Fresh Heir (Свежий наследник)
15. Secondhand Spoke (Пассивный курильщик)
16. Herpe, the Love Sore (Герпес, любовная рана)
17. The Most Interesting Man in the World (Самый Интересный Человек в Мире)
18. Baby Got Black (Ребенок стал темнокожим)
19. Meg Stinks! (Мег воняет!)
20. He's Bla-ack! (Чёрный Вернулся!)
21. Chap Stewie (Малыш Стьюи)
Доп. информация: Представляю новый 12 сезон мультсериала "Гриффины" в переводе телеканала 2х2, вышедший на телеэкраны сразу же после окончания показа 11 сезона, что разумеется правильно, так как у остальных сериалов уже показаны все существующие на данный момент сезоны, в должниках остались только "Гриффины" В общем наслаждайтесь!
Ссылка на предыдущие и альтернативные раздачи: http://cybertorrent.ru/tracker.php?nm=Family%20Guy
Качество: SATRip
Формат: AVI
Видео: Xvid, 720х576, 25.00fps, 1700 kbps
Аудио: MPEG Audio Layer 3, 48000Hz, stereo, 192 kbps
Субтитры: отсутствуют

Подробные технические данные

General
Complete name : C:\Documents and Settings\Admin\Мои документы\Гриффины 12\01. Finders Keepers.avi
Format : AVI
Format/Info : Audio Video Interleave
File size : 243 MiB
Duration : 20mn 2s
Overall bit rate : 1 699 Kbps
Writing application : Lavf52.61.0
Video
ID : 0
Format : MPEG-4 Visual
Format profile : Simple@L1
Format settings, BVOP : No
Format settings, QPel : No
Format settings, GMC : No warppoints
Format settings, Matrix : Default (H.263)
Codec ID : XVID
Codec ID/Hint : XviD
Duration : 20mn 2s
Bit rate : 1 494 Kbps
Width : 720 pixels
Height : 576 pixels
Display aspect ratio : 4:3
Frame rate : 25.000 fps
Standard : PAL
Color space : YUV
Chroma subsampling : 4:2:0
Bit depth : 8 bits
Scan type : Progressive
Compression mode : Lossy
Bits/(Pixel*Frame) : 0.144
Stream size : 214 MiB (88%)
Writing library : Lavc52.66.0
Audio
ID : 1
Format : MPEG Audio
Format version : Version 1
Format profile : Layer 3
Mode : Joint stereo
Mode extension : MS Stereo
Codec ID : 55
Codec ID/Hint : MP3
Duration : 20mn 2s
Bit rate mode : Constant
Bit rate : 192 Kbps
Channel(s) : 2 channels
Sampling rate : 44.1 KHz
Compression mode : Lossy
Stream size : 27.5 MiB (11%)
Alignment : Aligned on interleaves
Interleave, duration : 26 ms (0.65 video frame)

Скриншоты



[cybertorrent.ru].t1998.torrent 
Торрент: Зарегистрирован [ 2018-02-16 08:44 ] · 901A1F6C5218136470BAE5F4F63D6C029B73B2BD

Скачать .torrent

Скачать

14 KB

Статус: проверено
Скачан: 0 раз
Размер: 5,02 GB
Профиль [ЛС]
Показать сообщения:    

Текущее время: 15-Июл 21:23

Часовой пояс: UTC ± 0



Вы не можете начинать темы
Вы не можете отвечать на сообщения
Вы не можете редактировать свои сообщения
Вы не можете удалять свои сообщения
Вы не можете голосовать в опросах
Вы не можете прикреплять файлы к сообщениям
Вы можете скачивать файлы