Статистика раздачи
Размер:  14,85 GB   |    Зарегистрирован:  7 месяцев 4 дня   |    Скачан:  0 раз

Полного источника не было: Никогда

Личеров:  7  [  0 KB/s  ]  
 
   
 
 

DR_KTO ®

Пол:
Не указан
Стаж:
7 месяцев 5 дней
Сообщений:
105

Спокойной ночи, малыши!
Год выпуска: 2014
Страна: Россия
Жанр: Семейный, Передача, Для Самых маленьких
Продолжительность: 117 x ~ 00:10:00
Перевод: Не требуется
Телеканал: Россия, ТК Россия-1, Россия-К "ТРК Класс"
Описание: Самая известная детская передача "Спокойной ночи, малыши!" в эфире 45 лет. Сегодня ее смотрит уже третье поколение телезрителей. Программа является абсолютным рекордсменом по продолжительности существования и популярности. Созданная специально для детей от 3 до 7 лет, передача не имеет возрастных ограничений, так как вместе с ребенком ее с удовольствием смотрят родители, бабушки, дедушки. Герои передачи - Хрюша, Степашка, Филя, Каркуша и Мишка - это пять дружных зверюшек. В своей квартире, полной чудес и неожиданных сказочных вещей герои встречают своих взрослых друзей, узнают много нового об окружающем их мире и, конечно же, делятся своими открытиями с детьми. Сюжеты проникнуты доброжелательностью и мягким юмором, наполнены яркими красками. Обучение ребенка происходит ненавязчиво в игровой форме..
качество: SATRip
формат: AVI
Видео: 720x544 (1.32:1), 25 fps, XviD build 73 ~1525 kbps avg, 0.16 bit/pixel
Аудио: 48 kHz, AC3 Dolby Digital, 2/0 (L,R) ch, ~192 kbps

MediaInfo

General
Complete name : C:\Users\Dima\Downloads\Spokojnoj.nochi.malyshi.za.2014.MediaClub\Spokojnoj.nochi.malyshi.(2014.01.13).2014.XviD.SATRip.MediaClub.avi
Format : AVI
Format/Info : Audio Video Interleave
File size : 130 MiB
Duration : 10mn 29s
Overall bit rate : 1 728 Kbps
Writing application : VirtualDubMod 1.5.10.3 | www.virtualdub-fr.org || (build 2550/release)
Writing library : VirtualDubMod build 2550/release
Video
ID : 0
Format : MPEG-4 Visual
Format profile : Advanced Simple@L5
Format settings, BVOP : Yes
Format settings, QPel : No
Format settings, GMC : No warppoints
Format settings, Matrix : Custom
Codec ID : XVID
Codec ID/Hint : XviD
Duration : 10mn 29s
Bit rate : 1 526 Kbps
Width : 720 pixels
Height : 544 pixels
Display aspect ratio : 4:3
Frame rate : 25.000 fps
Color space : YUV
Chroma subsampling : 4:2:0
Bit depth : 8 bits
Scan type : Progressive
Compression mode : Lossy
Bits/(Pixel*Frame) : 0.156
Stream size : 115 MiB (88%)
Writing library : XviD 73
Audio
ID : 1
Format : AC-3
Format/Info : Audio Coding 3
Mode extension : CM (complete main)
Format settings, Endianness : Big
Codec ID : 2000
Duration : 10mn 29s
Bit rate mode : Constant
Bit rate : 192 Kbps
Channel(s) : 2 channels
Channel positions : Front: L R
Sampling rate : 48.0 KHz
Bit depth : 16 bits
Compression mode : Lossy
Stream size : 14.4 MiB (11%)
Alignment : Split accross interleaves
Interleave, duration : 40 ms (1.00 video frame)
Interleave, preload duration : 500 ms

Скриншоты

Внимание

Раздача ведётся путём добавления новых выпусков; при каждом добавлении создаётся новый торрент. Чтобы начать докачку нового выпуска, пользователям необходимо сделать следующее:
1. Остановить скачивание.
2. Удалить старый торрент у себя из клиента (старые выпуски удалять не надо).
3. Скачать новый торрент и запустить его у себя в клиенте вместо старого, при этом указать клиенту путь в старую папку куда и должно происходить скачивание новых выпусков.
Ваш клиент при этом должен произвести хеширование (проверку) старой папки (если не производит сам - помогите ему сделать это), и будет докачивать только те выпуски которых у вас ещё нет. Старые выпуски при этом не удаляются, а продолжают раздаваться!
Если вы уже удалили старые выпускки, то предотвратить повторную закачку старых выпусков можно, отжав галочку в соответствующих местах при запуске нового торрента. По возможности, желательно не удалять старые выпуски как можно дольше, чтобы релизер не столько продолжал раздавать старые выпуски, а смог сконцентрироваться на новых.
[cybertorrent.ru].t2006.torrent 
Торрент: Зарегистрирован [ 2018-02-16 08:44 ] · 9A162F8DFADB8B5BF00398750C93A78D432EAED2

Скачать .torrent

Скачать

51 KB

Статус: проверено
Скачан: 0 раз
Размер: 14,85 GB
Профиль [ЛС]
Показать сообщения:    

Текущее время: 21-Сен 04:41

Часовой пояс: UTC ± 0



Вы не можете начинать темы
Вы не можете отвечать на сообщения
Вы не можете редактировать свои сообщения
Вы не можете удалять свои сообщения
Вы не можете голосовать в опросах
Вы не можете прикреплять файлы к сообщениям
Вы можете скачивать файлы
Torrents24.ru открытый BitTorrent Torrents24.pl открытый BitTorrent CyberTorrent.ru открытый BitTorrent BtList.ru рейтинг BitTorrent трекеров Яндекс.Метрика