BitTorrent клиенты



Морские дьяволы. Смерч. Судьбы / Серии: 1-7 из 7 (Алексей Гусев, Сергей Васильев, Станислав Дремов) [2013, приключения, SATRip - AVC]

Ответить на тему
Статистика раздачи
Размер:  7,85 GB   |    Зарегистрирован:  11 месяцев 20 дней   |    Скачан:  0 раз

Полного источника не было: Никогда

 
   
 
 
Автор Сообщение

информер ®

Пол: Не указан

Стаж: 11 месяцев 22 дня

Сообщений: 124

Создавать темы 01-Мар-2018 04:18

[Цитировать]

Морские дьяволы. Смерч. Судьбы- Год выпуска: 2013
Производство: Телекомпания НТВ, "Гамма-продакшн"
Жанр: приключения
Продолжительность: ~ 01:30:00
Субтитры: нет-Режиссёр: Алексей Гусев, Сергей Васильев, Станислав Дремов-В ролях: Олег Чернов, Дарья Юргенс, Антон Гуляев, Владимир Ярош, Дарья Циберкина, Игорь Григорьев, Михаил Елисеев, Анна Пескова, Антон Пулит, Анатолий Журавлёв, Юрий Кузнецов, Константин Воробьёв, Виталий Кравченко, Руслан Лукьянов, Артур Федынко, Дмитрий Быковский-Ромашов, Михаил Сидаш, Сергей Шкарбан, Алексей Ревякин, Юрий Батурин, Дмитрий Лебедев, Оксана Скакун, Алексей Величко, Руслан Кацагаджиев, Олег Панин, Дмитрий Кочкин, Арсений Бойко, Алексей Симонов, Сергей Маркеев, Олег Малышев, Павел Миронов, Олег Морозов, Константин Клюквин, Юрий Елагин, Александр Петров-Описание: «Смерчи» вновь действуют, и вновь – по одному. Новые отдельные фильмы о жизни героев – Бати, Багиры, Кота, Бизона, Физика, Муры и Пригова, в которых каждый отвечает сам за себя – в отпуске, на специальном задании или под прикрытием – словом тогда, когда коллег по Смерчу рядом нет, и надеяться, кроме самих себя, не на кого.-Доп. Информация: Спасибо kostik184 за предоставленный исходник!-Любая реклама ОТСУТСТВУЕТ!!!-Все раздачи сериала
Сэмпл-Качество: SATRip - AVC [Исходник DVB]
Формат: MKV
Видео кодек: H.264
Аудио кодек: AC3
Видео: x264, 720 х 440**768 х 440 (16:9), 25,000 кадр/сек, ~ 1535 Кбит/сек, ~ 0.194 bit/pixel
Аудио: AC3, 48.0 KHz, 2 канала(ов), 192 kbs

MI

Complete name : Морские дьяволы.Судьбы.01 серия.2013.SATRip-AVC.Metla111.mkv
Format : Matroska
Format version : Version 2
File size : 1.09 GiB
Duration : 1h 30mn
Overall bit rate : 1 729 Kbps
Encoded date : UTC 2013-02-11 21:50:03
Writing application : mkvmerge v5.8.0 ('No Sleep / Pillow') built on Sep 2 2012 15:37:04
Writing library : libebml v1.2.3 + libmatroska v1.3.0
Video
ID : 1
Format : AVC
Format/Info : Advanced Video Codec
Format profile : High@L3.1
Format settings, CABAC : Yes
Format settings, ReFrames : 10 frames
Codec ID : V_MPEG4/ISO/AVC
Duration : 1h 30mn
Bit rate : 1 535 Kbps
Width : 720 pixels
Height : 440 pixels
Display aspect ratio : 16:9
Frame rate mode : Constant
Frame rate : 25.000 fps
Color space : YUV
Chroma subsampling : 4:2:0
Bit depth : 8 bits
Scan type : Progressive
Bits/(Pixel*Frame) : 0.194
Stream size : 971 MiB (87%)
Writing library : x264 core 125 r2208 d9d2288
Encoding settings : cabac=1 / ref=10 / deblock=1:-3:-3 / analyse=0x3:0x113 / me=umh / subme=9 / psy=1 / psy_rd=1.00:0.20 / mixed_ref=1 / me_range=32 / chroma_me=1 / trellis=2 / 8x8dct=1 / cqm=0 / deadzone=21,11 / fast_pskip=1 / chroma_qp_offset=-3 / threads=12 / lookahead_threads=2 / sliced_threads=0 / nr=0 / decimate=0 / interlaced=0 / bluray_compat=0 / constrained_intra=0 / bframes=8 / b_pyramid=2 / b_adapt=2 / b_bias=0 / direct=3 / weightb=1 / open_gop=0 / weightp=2 / keyint=250 / keyint_min=25 / scenecut=40 / intra_refresh=0 / rc=2pass / mbtree=0 / bitrate=1535 / ratetol=1.0 / qcomp=0.70 / qpmin=0 / qpmax=69 / qpstep=4 / cplxblur=20.0 / qblur=0.5 / ip_ratio=1.40 / pb_ratio=1.30 / aq=1:1.00
Default : Yes
Forced : No
Color primaries : BT.601 PAL
Transfer characteristics : BT.470 System B, BT.470 System G
Matrix coefficients : BT.601
Audio
ID : 2
Format : AC-3
Format/Info : Audio Coding 3
Mode extension : CM (complete main)
Format settings, Endianness : Big
Codec ID : A_AC3
Duration : 1h 30mn
Bit rate mode : Constant
Bit rate : 192 Kbps
Channel(s) : 2 channels
Channel positions : Front: L R
Sampling rate : 48.0 KHz
Bit depth : 16 bits
Compression mode : Lossy
Stream size : 124 MiB (11%)
Default : Yes
Forced : No

Log - x264

raw [info]: 720x440p 16:15 @ 25/1 fps (cfr)
x264 [info]: using SAR=16/15
x264 [info]: using cpu capabilities: MMX2 SSE2Fast SSSE3 FastShuffle SSE4.2 AVX XOP FMA4 FMA3 SSEMisalign LZCNT BMI1 TBM
x264 [info]: profile High, level 3.1
x264 [info]: frame I:1129 Avg QP:16.94 size: 43469
x264 [info]: frame P:34910 Avg QP:19.52 size: 15254
x264 [info]: frame B:99453 Avg QP:21.15 size: 4608
x264 [info]: consecutive B-frames: 3.6% 5.7% 14.7% 25.2% 17.6% 29.2% 2.8% 0.6% 0.6%
x264 [info]: mb I I16..4: 14.3% 63.6% 22.1%
x264 [info]: mb P I16..4: 0.9% 11.6% 2.1% P16..4: 41.7% 28.0% 12.6% 0.0% 0.0% skip: 3.1%
x264 [info]: mb B I16..4: 0.0% 0.9% 0.2% B16..8: 45.6% 11.4% 2.7% direct: 4.8% skip:34.3% L0:38.3% L1:47.3% BI:14.5%
x264 [info]: 8x8 transform intra:76.4% inter:58.4%
x264 [info]: direct mvs spatial:98.7% temporal:1.3%
x264 [info]: coded y,uvDC,uvAC intra: 94.7% 69.2% 32.2% inter: 27.7% 21.8% 3.2%
x264 [info]: i16 v,h,dc,p: 15% 13% 25% 47%
x264 [info]: i8 v,h,dc,ddl,ddr,vr,hd,vl,hu: 17% 11% 6% 8% 11% 12% 12% 11% 12%
x264 [info]: i4 v,h,dc,ddl,ddr,vr,hd,vl,hu: 17% 10% 3% 8% 13% 14% 12% 11% 12%
x264 [info]: i8c dc,h,v,p: 29% 28% 23% 19%
x264 [info]: Weighted P-Frames: Y:5.9% UV:3.1%
x264 [info]: ref P L0: 49.6% 14.5% 16.5% 4.6% 4.3% 2.7% 2.8% 1.5% 1.6% 1.4% 0.4% 0.0%
x264 [info]: ref B L0: 80.8% 9.5% 3.6% 2.0% 1.3% 1.2% 0.9% 0.5% 0.3%
x264 [info]: ref B L1: 95.1% 4.9%
x264 [info]: kb/s:1534.94

Скриншоты

Внимание ! Раздача ведётся путём добавления новых серий

Внимание! Раздача ведётся путём добавления новых серий; при каждом добавлении создаётся новый торрент. Чтобы начать докачку новой серии, пользователям необходимо сделать следующее:
(1) остановить скачивание,
(2) удалить старый торрент у себя из клиента (старые серии удалять не надо),
(3) скачать новый торрент и запустить его у себя в клиенте вместо старого, при этом указать клиенту путь в старую папку куда и должно происходить скачивание новых серий.
Ваш клиент при этом должен произвести хеширование (проверку) старой папки (если не производит сам - помогите ему сделать это), и будет докачивать только те серии которых у вас ещё нет. Старые серии при этом не удаляются, а продолжают раздаваться!
Если вы уже удалили старые серии, то предотвратить повторную закачку старых серий можно, отжав галочку в соответствующих местах при запуске нового торрента. По возможности, желательно не удалять старые серии как можно дольше чтобы релизёр не столько продолжал раздавать старые серии, а смог сконцентрироваться на новых.

FAQ по просмотру MKV/h.264/AAC

  • Смогу ли я запустить AVC фильм на своём компьютере?
  • Сампл из раздачи не воспроизводится/тормозит или отсутствует звук/изображение. Что делать?
  • Что такое H.264/AVC и зачем он нужен?
  • Что за дурацкий формат .MKV?
  • Почему MKV? Чем AVI хуже?
  • Не могу переключить/включить/выключить аудио/видео дорожки и/или субтитры. Что делать?
  • Как сделать так, чтобы по умолчанию при просмотре MKV файлов нужные/ненужные субтитры были включены/выключены, и/или сразу проигрывалась дорожка на нужном мне языке?
  • Будут ли фильмы в таком формате проигрываться на бытовых плеерах без компьютера?
  • Проигрываю фильм, а картинка очень сильно отличается от скринов/бледная/перенасыщенная. Что не так?
  • Можно ли сконвертировать AVC в DVD?
  • Почему сплюснута картинка / в характеристиках видео указано два разрешения / что такое анаморфное разрешение?
  • Зачем релизёры обманывают качающих и пишут в заголовке 720p/1080p, а на самом деле раздают видеоматериалы в непонятных разрешениях?
  • Можно ли вывести многоканальный FLAC/AAC-звук на внешний ресивер?
  • У меня 2-канальная акустика/стереонаушники. При просмотре видео почти не слышно/совсем не слышно речь/разговоры, играют только фоновые звуки. Что делать?
  • У меня стоит CoreAVC версии 1.9.5 или младше. При воспроизведении картинка рассыпается на квадраты и разноцветные пятна. Кривой рип?
  • Всё прочитал(-а), решения своей проблемы не нашёл(-шла)/не смог(-ла) разобраться. Что делать?
  • -
    [cybertorrent.ru].t20079.torrent 
    Торрент: Зарегистрирован [ 2018-03-01 04:20 ] · 5D035DCD289B5B69F232E7CCA68688891F44CE2E

    Скачать .torrent

    Скачать

    41 KB

    Статус: проверено
    Скачан: 0 раз
    Размер: 7,85 GB
    terms.php
    [Профиль] [ЛС]
    Показать сообщения:    
    Ответить на тему

    Текущее время: 22-Фев 03:52

    Часовой пояс: UTC + 3



    Вы не можете начинать темы
    Вы не можете отвечать на сообщения
    Вы не можете редактировать свои сообщения
    Вы не можете удалять свои сообщения
    Вы не можете голосовать в опросах
    Вы не можете прикреплять файлы к сообщениям
    Вы можете скачивать файлы