Статистика раздачи
Размер:  1,72 GB   |    Зарегистрирован:  6 месяцев 3 дня   |    Скачан:  0 раз

Полного источника не было: Никогда

   
 

serzh ®

Пол:
Не указан
Стаж:
7 месяцев 4 дня
Сообщений:
384

Месть ниндзя / Revenge of the Ninja
Страна: США
Жанр: боевик, приключения
Год выпуска: 1983
Продолжительность: 01:30:04

Перевод: Авторский (одноголосый закадровый) Андрей Гаврилов
Перевод 2: Авторский (одноголосый закадровый) Алексей Михалев
Перевод 3: Авторский (одноголосый закадровый) Леонид Володарский
Перевод 4: Авторский (одноголосый закадровый) Юрий Товбин (отдельно)
Перевод 5: Одноголосый закадровый Неизвестный (отдельно)
Субтитры: нет
Режиссер: Сэм Фёрстенберг / Sam Firstenberg
В ролях: Сё Косуги, Кит Витали, Вёрджил Фрай, Артур Робертс, Марио Галло, Грэйс Осита, Эшли Ферраре, Кейн Косуги, Мэл Хэмптон
Описание: Мастер искуства ниндзютцу Чо по прозвищу Черный ниндзя вместе с сыном переезжает в США и начинает новую жизнь на чужбине, после того как в Японии группа ниндзя убивает почти всех членов его семьи. Чо открывает магазин игрушек, не подозревая, что его нечистый на руку партнер провозит контрабандой героин, набивая им кукол. Осознание того, что партнер и друг предал его, становится последней каплей в чаше терпения Черного ниндзя....

Сэмпл: http://multi-up.com/1229301
Качество видео: BDRip (Исходник BDRemux 1080p)
Формат видео: AVI
Видео: XviD 73, 720x384, (1,85:1), 23,976 fps, 1723 Кбит/с, 8 бит, 0.26 bit/pixel
Аудио: Русский (АС3, 2 ch (Front: L R), 48,0 KHz, 192 Kbps) Андрей Гаврилов
Аудио 2: Русский (АС3, 2 ch (Front: L R), 48,0 KHz, 224 Kbps) Алексей Михалев
Аудио 3: Русский (АС3, 2 ch (Front: L R), 48,0 KHz, 192 Kbps) Леонид Володарский
Аудио 4: Русский (АС3, 2 ch (Front: L R), 48,0 KHz, 192 Kbps) Юрий Товбин (отдельно)
Аудио 5: Русский (АС3, 2 ch (Front: L R), 48,0 KHz, 192 Kbps) Неизвестный (отдельно)

MediaInfo

Общее
Полное имя : D:\Фильмы на трекер\Месть_ниндзя_(боевик, приключения 1983 год)_Leonard_Lew\Месть_ниндзя_(боевик, приключения 1983 год)_Leonard_Lew.avi
Формат : AVI
Формат/Информация : Audio Video Interleave
Размер файла : 1,48 Гбайт
Продолжительность : 1 ч. 30 м.
Общий поток : 2350 Кбит/сек
Программа кодирования : VirtualDubMod 1.5.10.2 (build 2540/release)
Библиотека кодирования : VirtualDubMod build 2540/release
Видео
Идентификатор : 0
Формат : MPEG-4 Visual
Профиль формата : Advanced Simple@L5
Параметр BVOP формата : 2
Параметр QPel формата : Нет
Параметр GMC формата : Без точки перехода
Параметр матрицы формата : Выборочная
Идентификатор кодека : XVID
Идентификатор кодека/Подсказка : XviD
Продолжительность : 1 ч. 30 м.
Битрейт : 1723 Кбит/сек
Ширина : 720 пикселей
Высота : 384 пикселя
Соотношение сторон : 1,85:1
Частота кадров : 23,976 (23976/1000) кадра/сек
Цветовое пространство : YUV
Субдискретизация насыщенности : 4:2:0
Битовая глубина : 8 бит
Тип развёртки : Прогрессивная
Метод сжатия : С потерями
Бит/(Пиксели*Кадры) : 0.260
Размер потока : 1,08 Гбайт (73%)
Библиотека кодирования : XviD 73
Аудио #1
Идентификатор : 1
Формат : AC-3
Формат/Информация : Audio Coding 3
Расширение режима : CM (complete main)
Параметр Endianness формата : Big
Идентификатор кодека : 2000
Продолжительность : 1 ч. 30 м.
Вид битрейта : Постоянный
Битрейт : 192 Кбит/сек
Каналы : 2 канала
Расположение каналов : Front: L R
Частота : 48,0 КГц
Частота кадров : 31,250 кадров/сек (1536 spf)
Метод сжатия : С потерями
Размер потока : 124 Мбайт (8%)
Выравнивание : Разделение по промежуткам
Продолжительность промежутка : 42 мс. (1,00 видеокадр)
Время предзагрузки промежутка : 500 мс.
Аудио #2
Идентификатор : 2
Формат : AC-3
Формат/Информация : Audio Coding 3
Расширение режима : CM (complete main)
Параметр Endianness формата : Big
Идентификатор кодека : 2000
Продолжительность : 1 ч. 30 м.
Вид битрейта : Постоянный
Битрейт : 224 Кбит/сек
Каналы : 2 канала
Расположение каналов : Front: L R
Частота : 48,0 КГц
Частота кадров : 31,250 кадров/сек (1536 spf)
Метод сжатия : С потерями
Размер потока : 144 Мбайт (10%)
Выравнивание : Разделение по промежуткам
Продолжительность промежутка : 42 мс. (1,00 видеокадр)
Время предзагрузки промежутка : 500 мс.
Аудио #3
Идентификатор : 3
Формат : AC-3
Формат/Информация : Audio Coding 3
Расширение режима : CM (complete main)
Параметр Endianness формата : Big
Идентификатор кодека : 2000
Продолжительность : 1 ч. 30 м.
Вид битрейта : Постоянный
Битрейт : 192 Кбит/сек
Каналы : 2 канала
Расположение каналов : Front: L R
Частота : 48,0 КГц
Частота кадров : 31,250 кадров/сек (1536 spf)
Метод сжатия : С потерями
Размер потока : 124 Мбайт (8%)
Выравнивание : Разделение по промежуткам
Продолжительность промежутка : 42 мс. (1,00 видеокадр)
Время предзагрузки промежутка : 500 мс.

Скриншот c названием фильма

Скриншоты

Сравнение

http://cybertorrent.ru/forum/viewtopic.php?t=109589 http://screenshotcomparison.com/comparison/133828/picture:0
Разное наполнение кадра / Дорога Михалева
[cybertorrent.ru].t2009.torrent 
Торрент: Зарегистрирован [ 2019-04-13 17:23 ] · C6BB9BB5F8277383139D6CB1595FA09BD897FCA3

Скачать .torrent

Скачать

18 KB

Статус: проверено
Скачан: 0 раз
Размер: 1,72 GB
terms.php
Профиль ЛС
Показать сообщения:    

Текущее время: 17-Окт 00:44

Часовой пояс: UTC ± 0



Вы не можете начинать темы
Вы не можете отвечать на сообщения
Вы не можете редактировать свои сообщения
Вы не можете удалять свои сообщения
Вы не можете голосовать в опросах
Вы не можете прикреплять файлы к сообщениям
Вы можете скачивать файлы