Статистика раздачи
Размер:  1,37 GB   |    Зарегистрирован:  6 месяцев 8 дней   |    Скачан:  0 раз
Сидов:  13  [  0 KB/s  ]   Личеров:  2  [  0 KB/s  ]  
   
 

serzh ®

Пол:
Не указан
Стаж:
7 месяцев 9 дней
Сообщений:
384

Племянница / La nipote (1974)
Страна: Италия
Жанр: Комедия
Год выпуска: 1974
Продолжительность: 01:20:10
Перевод: Одноголосый закадровый Вадим Белов
Субтитры: нет
Оригинальная аудиодорожка: нет
Режиссер: Нелло Россати / Nello Rossati
В ролях: Франческа Муцио, Даниеле Варгас, Энни Эдель, Эцио Марано, Роберто Проетти, Отелло Каццола, Сьюзи Кастер, Карла Манчини, Оркидея Де Сантис, Джорджио Ардиссон
Описание: Каждый отпуск инженер Луиджи Фаваретто со своей женой Зорайде и приятелем Пьеро приезжает в загородный дом чтобы полностью отдаться своему увлечению - охоте. Только охотится он больше на аппетитную служанку Дорис. В то же время Пьеро, ненавидящий охоту на зверей, с большим удовольствием охотится на Зорайде. Охотничьи планы Луиджи нарушает Адель, 18-летняя племянница Зорайде, внезапно заявившаяся к ним после смерти матери. Вскоре на летние каникулы приезжает еще и Антонио, сын Луиджи от первого брака...
* Моя благодарность AndreSweet за рип.
Сэмпл: http://multi-up.com/1229302
Качество видео: DVDRip
Формат видео: AVI
Видео: 720x384 (1.88:1), 25 fps, XviD build 50 ~2239 kbps avg, 0.32 bit/pixel
Аудио: 48 kHz, AC3 Dolby Digital, 2/0 (L,R) ch, ~192 kbps

MediaInfo

Общее
Полное имя : E:\La.nipote_1974.DVDRip.avi
Формат : AVI
Формат/Информация : Audio Video Interleave
Размер файла : 1,37 Гбайт
Продолжительность : 1 ч. 20 м.
Общий поток : 2441 Кбит/сек
Название фильма : La.nipote_1974.DVDRip
Программа кодирования : VirtualDubMod 1.5.10.3 | www.virtualdub-fr.org || (build 2550/release)
Примечание : rip by andresweet
Видео
Идентификатор : 0
Формат : MPEG-4 Visual
Профиль формата : Advanced Simple@L5
Настройки формата : BVOP1
Параметр BVOP формата : 1
Параметр QPel формата : Нет
Параметр GMC формата : Без точки перехода
Параметр матрицы формата : Default (MPEG)
Идентификатор кодека : DX50
Идентификатор кодека/Подсказка : DivX 5
Продолжительность : 1 ч. 20 м.
Битрейт : 2240 Кбит/сек
Ширина : 720 пикселей
Высота : 384 пикселя
Соотношение сторон : 1,85:1
Частота кадров : 25,000 кадров/сек
Цветовое пространство : YUV
Субдискретизация насыщенности : 4:2:0
Битовая глубина : 8 бит
Тип развёртки : Прогрессивная
Метод сжатия : С потерями
Бит/(Пиксели*Кадры) : 0.324
Размер потока : 1,25 Гбайт (92%)
Библиотека кодирования : XviD 1.2.1 (UTC 2008-12-04)
Аудио
Идентификатор : 1
Формат : AC-3
Формат/Информация : Audio Coding 3
Идентификатор кодека : 2000
Продолжительность : 1 ч. 20 м.
Вид битрейта : Постоянный
Битрейт : 192 Кбит/сек
Каналы : 2 канала
Расположение каналов : Front: L R
Частота : 48,0 КГц
Частота кадров : 31,250 кадров/сек (1536 SPF)
Битовая глубина : 16 бит
Метод сжатия : С потерями
Размер потока : 110 Мбайт (8%)
Выравнивание : Разделение по промежуткам
Продолжительность промежутка : 40 мс. (1,00 видеокадр)
Время предзагрузки промежутка : 500 мс.
ServiceKind/String : Complete Main

Скриншот c названием фильма

[cybertorrent.ru].t2010.torrent 
Торрент: Зарегистрирован [ 2019-04-13 17:23 ] · 2CFF81F42CD3BEBD867CEA2FA4DECFA7C3363028

Скачать .torrent

Скачать

14 KB

Статус: проверено
Скачан: 0 раз
Размер: 1,37 GB
terms.php
Профиль ЛС
Показать сообщения:    

Текущее время: 22-Окт 08:44

Часовой пояс: UTC ± 0



Вы не можете начинать темы
Вы не можете отвечать на сообщения
Вы не можете редактировать свои сообщения
Вы не можете удалять свои сообщения
Вы не можете голосовать в опросах
Вы не можете прикреплять файлы к сообщениям
Вы можете скачивать файлы