Статистика раздачи
Размер:  2,03 GB   |    Зарегистрирован:  6 месяцев 2 дня   |    Скачан:  0 раз
Сидов:  7  [  0 KB/s  ]  
   
 

Гость ®

Пол:
Не указан

Московские тайны. Опасный переплет
Год выпуска: 2019
Производство: Приор Продакшн
Жанр: детектив
Продолжительность: ~00:44:00 серия
Субтитры: нет
Режиссёр: Антон Шарапов
В ролях: Анна Старшенбаум, Евгений Пронин, Александр Робак, Екатерина Семенова, Владислав Ветров, Алексей Лонгин

Описание: В Российской Государственной Библиотеке – знаменитой «Ленинке» – страшный переполох: молодой парень подошел сдать книгу и вдруг упал замертво. Налицо все признаки отравления. Что это – теракт в непосредственной близости от Кремля? Разборки наркоторговцев? Личная месть? Версии отпадают одна за другой, а следователю Насте Вяземской не дают покоя маленькие странности… Что за несуразная одежда висит в шкафу покойного? Зачем он записал телефон какой-то вахтерши? И если в его квартире нет ни одной книги, что ему понадобилось в «Ленинке»? Времени на долгие раздумья нет: неизвестно, где и как убитого настигла отрава, и кого она подстерегает еще.

Реклама: Нет.
Кинопоиск
Все раздачи сериала
Sample
Качество: WEBRip 720p - Getty
Формат: MKV
Видео кодек: H.264
Аудио кодек: AC3
Видео: MPEG4 AVC Video, H264, 16:9, 1280x720, 25 fps, ~3200 kbps, 0.139 bit/pixel
Аудио: AC3 Dolby Digital, 48.0 kHz, 2/0 (L,R) ch, 192 kbps

MI

General
Unique ID : 250428762990709981972087185808152895480 (0xBC66D34AA8E0783F8F7987A814389FF8)
Complete name : D:\Moskovskie.tayni.Opasnyi.pereplet.2018.WEB-DL.(720p).Getty\Moskovskie.tayni.Opasnyi.pereplet.e01.2018.WEB-DL.(720p).Getty.mkv
Format : Matroska
Format version : Version 4 / Version 2
File size : 1.03 GiB
Duration : 44 min 27 s
Overall bit rate mode : Constant
Overall bit rate : 3 303 kb/s
Movie name : Moskovskie.tayni.Opasnyi.pereplet.e01.2018.WEB-DL.(720p).Getty
Encoded date : UTC 2019-04-12 20:52:54
Writing application : mkvmerge v7.8.0 ('River Man') 32bit built on Mar 27 2015 16:18:02
Writing library : libebml v1.3.1 + libmatroska v1.4.2
Video
ID : 1
Format : AVC
Format/Info : Advanced Video Codec
Format profile : High@L4.1
Format settings : CABAC / 4 Ref Frames
Format settings, CABAC : Yes
Format settings, ReFrames : 4 frames
Codec ID : V_MPEG4/ISO/AVC
Duration : 44 min 27 s
Bit rate mode : Constant
Bit rate : 3 200 kb/s
Width : 1 280 pixels
Height : 720 pixels
Display aspect ratio : 16:9
Frame rate mode : Constant
Frame rate : 25.000 FPS
Color space : YUV
Chroma subsampling : 4:2:0
Bit depth : 8 bits
Scan type : Progressive
Bits/(Pixel*Frame) : 0.139
Stream size : 988 MiB (94%)
Default : Yes
Forced : No
Audio
ID : 2
Format : AC-3
Format/Info : Audio Coding 3
Codec ID : A_AC3
Duration : 44 min 26 s
Bit rate mode : Constant
Bit rate : 192 kb/s
Channel(s) : 2 channels
Channel positions : Front: L R
Sampling rate : 48.0 kHz
Frame rate : 31.250 FPS (1536 SPF)
Bit depth : 16 bits
Compression mode : Lossy
Stream size : 61.0 MiB (6%)
Service kind : Complete Main
Default : Yes
Forced : No

Скриншоты


[cybertorrent.ru].t2013.torrent 
Торрент: Зарегистрирован [ 2019-04-13 17:23 ] · 83C779221589FA80AF9A357B425DF01727EA321F

Скачать .torrent

Скачать

11 KB

Статус: проверено
Скачан: 0 раз
Размер: 2,03 GB
terms.php
Показать сообщения:    

Текущее время: 16-Окт 04:16

Часовой пояс: UTC ± 0



Вы не можете начинать темы
Вы не можете отвечать на сообщения
Вы не можете редактировать свои сообщения
Вы не можете удалять свои сообщения
Вы не можете голосовать в опросах
Вы не можете прикреплять файлы к сообщениям
Вы можете скачивать файлы