Статистика раздачи
Размер:  17,65 GB   |    Зарегистрирован:  7 месяцев 5 дней   |    Скачан:  0 раз

Полного источника не было: Никогда

 
   
 
 

Симка ®

Пол:
Не указан
Стаж:
7 месяцев 6 дней
Сообщений:
73

Революция Кирарин / Kirarin Revolution
Страна: Япония
Год выпуска: 2006 г.
Жанр: комедия, романтика, драма, сёдзё, музыкальный
Продолжительность: ТВ, 153 эп. по 25 мин.
Режиссер: Окуваки Масахару
Автор оригинала: Накахара Ан
Студия: &
Описание: Цукишима Кирари - 14-летняя красивая девочка, чей главный интерес - еда. Но всё резко меняется, когда она неожиданно встречает Сэджи Хиватари из популярной группы "SHIPS" и влюбляется в него. И чтобы всегда быть рядом с ним она решает тоже стать звездой. С помощью участников группы "SHIPS", внимательного и доброго Сэджи Хиватари и острого на язык (но тоже доброго в душе) Хирото Казамы, а также своего питомца Наа-сана, своей семьи и друзей, она входит в мир шоу-бизнеса. Где узнаёт, что жизнь звезды совсем не развлечение и игра, а очень тяжёлая повседневная работа. Которую приходится совмещать с учёбой в школе. Школа, любовь, семья, друзья, шоу-бизнес - и это ещё не весь список того с чем ей приходится сталкиваться каждый день. Но её доброта и жизнерадостность сметают любые преграды на пути.
Доп. информация: Релиз Get Smart Group
Качество: TVRip
Тип релиза: Без хардсаба
Формат видео: MKV
Совместимость с бытовыми плеерами: Нет
Видео: DivX 5, 640x480, 29.970 fps, 1312 kbps, 8bit
Аудио: AC-3, 192 kb/s, 48.0 KHz, 2 ch ; Язык Русский (в составе контейнера) ; Озвучка: Persona99 (женская; одноголосая)
Аудио 2: MP3 160 kb/s, 48.0 KHz, 2 ch ; Язык Японский (в составе контейнера) ; Озвучка: Оригинал
Субтитры: встроенные, ass ; Язык субтитров русский ; Перевод: Witwood

Подробные тех. данные

General
Unique ID : 210156986162847595674500397505772310575 (0x9E1AC3657CB26F6DBFB326F97C34D02F)
Complete name : D:\мои раздачи\Kirarin Revolution\Kirarin Revolution - 001 [Persona99].mkv
Format : Matroska
Format version : Version 4 / Version 2
File size : 272 MiB
Duration : 22mn 25s
Overall bit rate : 1 697 Kbps
Encoded date : UTC 2017-04-13 17:08:51
Writing application : mkvmerge v7.3.0 ('Nouages') 32bit built on Oct 22 2014 18:44:01
Writing library : libebml v1.3.0 + libmatroska v1.4.1
DURATION : 00:22:03.570000000
NUMBER_OF_FRAMES : 270
NUMBER_OF_BYTES : 24459
_STATISTICS_WRITING_APP : mkvmerge v7.3.0 ('Nouages') 32bit built on Oct 22 2014 18:44:01
_STATISTICS_WRITING_DATE_UT : 2017-04-13 17:08:51
_STATISTICS_TAGS : BPS DURATION NUMBER_OF_FRAMES NUMBER_OF_BYTES
Video
ID : 1
Format : MPEG-4 Visual
Format settings, BVOP : 1
Format settings, QPel : No
Format settings, GMC : No warppoints
Format settings, Matrix : Default (H.263)
Muxing mode : Packed bitstream
Codec ID : V_MS/VFW/FOURCC / DX50
Codec ID/Hint : DivX 5
Duration : 22mn 25s
Bit rate : 1 312 Kbps
Width : 640 pixels
Height : 480 pixels
Display aspect ratio : 4:3
Frame rate mode : Constant
Frame rate : 29.970 fps
Color space : YUV
Chroma subsampling : 4:2:0
Bit depth : 8 bits
Scan type : Progressive
Compression mode : Lossy
Bits/(Pixel*Frame) : 0.142
Stream size : 210 MiB (77%)
Writing library : DivX 5.1.1 (Maupiti) (UTC 2003-11-19)
Default : Yes
Forced : No
Audio #1
ID : 2
Format : AC-3
Format/Info : Audio Coding 3
Mode extension : CM (complete main)
Format settings, Endianness : Big
Codec ID : A_AC3
Duration : 22mn 25s
Bit rate mode : Constant
Bit rate : 192 Kbps
Channel(s) : 2 channels
Channel positions : Front: L R
Sampling rate : 48.0 KHz
Bit depth : 16 bits
Compression mode : Lossy
Stream size : 30.8 MiB (11%)
Title : Persona99
Language : Russian
Default : Yes
Forced : No
Audio #2
ID : 3
Format : MPEG Audio
Format version : Version 1
Format profile : Layer 3
Mode : Joint stereo
Mode extension : MS Stereo
Codec ID : A_MPEG/L3
Codec ID/Hint : MP3
Duration : 22mn 25s
Bit rate mode : Constant
Bit rate : 160 Kbps
Channel(s) : 2 channels
Sampling rate : 48.0 KHz
Compression mode : Lossy
Stream size : 25.7 MiB (9%)
Title : Original
Language : Japanese
Default : No
Forced : No
Text
ID : 4
Format : ASS
Codec ID : S_TEXT/ASS
Codec ID/Info : Advanced Sub Station Alpha
Compression mode : Lossless
Title : Witwood
Language : Russian
Default : No
Forced : No

Список эпизодов

001. "Кирарин! Звёздная революция!!!"
002. "Волнение! Пробы в SHIPS!!!"
003. "Кия! Дебют в CM!!!"
004. "Ужас! Папа против?!"
005. "Невероятно! Первая работа!"
006. "Как трудно! Тренировка звезды!"
007. "Боэ-э-э! Вызов песне!"
008. "О нет! Первый раз на сцене!"
009. "Сюрприз! Иллюзионист Араши!"
010. "Волнение! Перевод в школу для звёзд!"
011. "Бах! Я в главной роли?!"
012. "О-Ох! Драматическое свидание!"
013. "Вкус! Фантастический поцелуй?!"
014. "Любовь! SHIPS? Противостояние?"
015. "Любовь? Входим в музыкальный ТОП!"
016. "Все в порядке! Странные пробы!"
017. "Сердцебиение! Встреча звёзд в купальниках!"
018. "Кирари... Летние каникулы с Саякой и Мику"
019. "Ох-ох! Репортаж о призраках!"
020. "На! Приехал мой брат!"
021. "Мяу! Сражение звёзд. Супер-Фубуки!!!"
022. "Шок! Кому достанется поцелуй?!"
023. "Шить?! Секретное платье и Хиро-нии-чан!"
024. "Динь! Песня любви эхом в море отзовётся..."
025. "Сердцебиение! Фейерверки любви!"
026. "Решение вынесено! Звезда победитель: На! Мя! Я!"
027. "Взбитые сливки! Говори быстрее! Смейся громче!"
028. "На-На-На! Революция Наа-сана!"
029. "Переполох! Великая битва звёзд с экзаменами!"
030. "Снимок! Сенсация на школьном фестивале!"
031. "Ах! Любовь заблудившаяся в Нью-Йорке?!"
032. "Мяу~! Революция Тины и Кирари!"
033. "Улыбка! Душа актриссы в океане!!!"
034. "Хиро-кун! Бабушкин кошачий путь любви?!"
035. "Огонь! Кирари против таинственного вора "Х"!!"
036. "Наа, Мя~ Они! Соревнование на звание лучшего питомца!"
037. "Касуми! Золушка весеннего ветра!"
038. "Признание?! День рождения "SHIPS"!"
039. "Великолепие! Поют лучшие звёзды!"
040. "Прощай Наа-сан?! До встречи!!!"
041. "Аой! КИрари! Специальный концерт для бабушек!"
042. "Розовый! Превращение в рейнжера-едока!"
043. "Краб! Водные иллюзии Араши!!!"
044. "IQ! Кирари в викторине с гениями!!!"
045. "Чудо! Цирк Наа-сана!!!"
046. "Каме-сан! "SHIPS" распадается?!"
047. "Это я! Эрина-скебан!!!"
048. "Кирари и Аканэ! Откровенный разговор!"
049. "Лови! Великолепный танец Гэлакси?!"
050. "Тур по стране! Любовь пылающая среди снегов!"
051. "Сияй! Бриллиантовая королева звёзд!!!"
052. "Мяч в игре! Кирари начинает игру? Открытие сезона!"
053. "Добро пожаловать~ Приходите в кафе Кирарин!"
054. "Миютан влюбляется в Наа-сана? Дуэль Кирари!!!"
055. "Не может быть! Гриб в пробной манге?!"
056. "Поцелуй! Хирото и Изуми - пара?!"
057. "Ёка! Сенсация со слёзами в любовном треугольнике?!"
058. "Облака пара! Миссия: Защитить Хирото!!!"
059. "А-а-а?! Удивительные девушки в юката!"
060. "В космос! Кирари в последние минуты жизни Земли"
061. "Революция! Девочка и цветочные часы Кирари!"
062. "Искры! Чокнутая новая звезда!"
063. "Страх! Первое выступление Кирари и Хикару!"
064. "Удар! Парная победа?"
065. "У "KIRAPIKA" проблемы?! Мы как север и юг!"
066. "Удар! Я хочу, чтобы письмо тронуло её сердце!!!"
067. "Пробы! Наш соперник "SUPERNOVA"!"
068. "Ужас! Охотники за приведениями в деле!"
069. "Привет! Комедийное соревнование?!"
070. "Духи Кирари? Я так счастлива!"
071. "Лето! Купальники! Все звёзды вместе!"
072. "Соответствовать! Гармония одежды от Кирари и Хикару?"
073. "Ужас! "Два полумесяца" погибли?!"
074. "Мюзикл! Взрыв! Худеем!!!"
075. "Страх! Хикару на сцене!"
076. "Провокация и слёзы! "KIRAPIKA" распалась?!"
077. "Прощай "KIRAPIKA" Последний концерт!"

Отличия от существующих раздач

http://cybertorrent.ru/viewtopic.php?t=1671603 - наличие озвучки.

Скриншоты

Семпл: https://yadi.sk/i/bTt0ihJ0bqi5j
[cybertorrent.ru].t2014.torrent 
Торрент: Зарегистрирован [ 2018-02-16 08:44 ] · 4565011B85822A6A8AFF5844253C4CF18089D6

Скачать .torrent

Скачать

94 KB

Статус: проверено
Скачан: 0 раз
Размер: 17,65 GB
Профиль [ЛС]
Показать сообщения:    

Текущее время: 21-Сен 11:26

Часовой пояс: UTC ± 0



Вы не можете начинать темы
Вы не можете отвечать на сообщения
Вы не можете редактировать свои сообщения
Вы не можете удалять свои сообщения
Вы не можете голосовать в опросах
Вы не можете прикреплять файлы к сообщениям
Вы можете скачивать файлы
Torrents24.ru открытый BitTorrent Torrents24.pl открытый BitTorrent CyberTorrent.ru открытый BitTorrent BtList.ru рейтинг BitTorrent трекеров Яндекс.Метрика