BitTorrent клиенты



Саркар 3 / Sarkar 3 (Рам Гопал Варма / Ram Gopal Varma) [2017, Индия, Драма, SATRip] MVO (Bollywood HD)

Ответить на тему
 
Автор Сообщение

Alex ®

Пол: Не указан

Стаж: 1 год

Сообщений: 855

Создавать темы 06-Фев-2018 00:56

[Цитировать]

Саркар 3 / Sarkar 3
Страна: Индия
Жанр: Драма
Год выпуска: 2017
Продолжительность: 02:04:52-Перевод: Профессиональный (многоголосый закадровый) - SDI Media [т/к Bollywood HD]
Субтитры: Нет-Режиссер: Рам Гопал Варма / Ram Gopal Varma-В ролях: Амитабх Баччан, Ями Гаутам, Джеки Шрофф, Маной Баджпаи, Ронит Рой, Амит Садх, Рохини Хаттангди, Бхарат Дабхолкар, Баджрангбали Сингх, Параг Тьяги-Описание: Продолжение знаменитой истории, рассказывающей о Саркаре Радже, который продолжает бороться со своими политическими соперниками. Он неустанно сражается со всё новыми и новыми противниками, большая часть из которых не может нанести серьёзный удар по его репутации. Саркар Радж продолжает помогать всем тем, кто обращается к нему за помощью. На этот раз могущественный политический деятель столкнётся с ещё более серьёзными вызовами, и Саркару очень пригодится тот бесценный опыт, который был наработан им за долгие годы успешной карьеры. Но сможет ли он и на этот раз выиграть очередную войну?
-
IMDb | Кинопоиск--Качество видео: SATRip
Формат видео: AVI-Видео: 688x288 (2.39:1), 25 fps, XviD build 50 ~1536 kbps avg, 0.31 bit/pixel
Аудио: 48 kHz, MPEG Layer 3, 2 ch, ~128.00 kbps
-
Сэмпл-Релиз:
Рип: soso4eg- --

Скриншот с названием

Скриншоты

-

MediaInfo

General
Complete name : Y:\[РЕЛИЗЫ]\Sarkar.3.2017.P.SATRip.XviD.BwTorrents.avi
Format : AVI
Format/Info : Audio Video Interleave
File size : 1.46 GiB
Duration : 2h 4mn
Overall bit rate : 1 674 Kbps
Movie name : Sarkar.3.2017.P.SATRip.XviD.BwTorrents
Director : soso4eg@BwTorrents
Writing application : VirtualDubMod 1.6.0.0 SURROUND (build 2560/release)
Original source form/Name : Hindi
Copyright : BwTorrents
Comment : проф. перевод SDI Media
Video
ID : 0
Format : MPEG-4 Visual
Format profile : Advanced Simple@L5
Format settings, BVOP : 2
Format settings, QPel : No
Format settings, GMC : No warppoints
Format settings, Matrix : Default (H.263)
Codec ID : XVID
Codec ID/Hint : XviD
Duration : 2h 4mn
Bit rate : 1 537 Kbps
Width : 688 pixels
Height : 288 pixels
Display aspect ratio : 2.40:1
Frame rate : 25.000 fps
Color space : YUV
Chroma subsampling : 4:2:0
Bit depth : 8 bits
Scan type : Progressive
Compression mode : Lossy
Bits/(Pixel*Frame) : 0.310
Stream size : 1.34 GiB (92%)
Writing library : XviD 1.2.1 (UTC 2008-12-04)
Audio
ID : 1
Format : MPEG Audio
Format version : Version 1
Format profile : Layer 3
Codec ID : 55
Codec ID/Hint : MP3
Duration : 2h 4mn
Bit rate mode : Constant
Bit rate : 128 Kbps
Channel(s) : 2 channels
Sampling rate : 48.0 KHz
Compression mode : Lossy
Stream size : 114 MiB (8%)
Alignment : Aligned on interleaves
Interleave, duration : 40 ms (1.00 video frame)
Interleave, preload duratio : 504 ms
[Профиль] [ЛС]
Показать сообщения:    
Ответить на тему

Текущее время: 20-Фев 00:34

Часовой пояс: UTC + 3



Вы не можете начинать темы
Вы не можете отвечать на сообщения
Вы не можете редактировать свои сообщения
Вы не можете удалять свои сообщения
Вы не можете голосовать в опросах
Вы не можете прикреплять файлы к сообщениям
Вы можете скачивать файлы