BitTorrent клиенты



(Hardcore, Thrash Metal, Crossover) Short Sharp Shock (SSS) - Дискография (4 CD) - 2007-2014, FLAC (image+.cue), lossless

Ответить на тему
Статистика раздачи
Размер:  1,61 GB   |    Зарегистрирован:  11 месяцев 20 дней   |    Скачан:  0 раз

Полного источника не было: Никогда

 
   
 
 
Автор Сообщение

cron4ik ®

Пол: Не указан

Стаж: 11 месяцев 22 дня

Сообщений: 84

Создавать темы 01-Мар-2018 05:44

[Цитировать]

Short Sharp Shock (SSS) / Дискография
Жанр: Hardcore, Thrash Metal, Crossover
Страна-производитель диска: Russia, EU
Год издания: 2007-2014
Издатель (лейбл): Earache
Страна: United Kingdom
Аудиокодек: FLAC (*.flac)
Тип рипа: image+.cue
Битрейт аудио: lossless
Источник (релизер): диски из личной коллекции
Наличие сканов в содержимом раздачи: да

Дискография

2007 - Short Sharp Shock (0:38:07) - MOSH352CD, Soyuz

1. Quiet Before The Storm (01:24)
2. Warhorse (01:50)
3. New Dogs (01:28)
4. The Answer Is Never (01:33)
5. Damaged Goods (01:35)
6. Overload (02:52)
7. Monster (02:22)
8. SSS (01:28)
9. Gearin Up For Gettin Down (01:35)
10. The Beast (02:27)
11. Last Man Standing (01:59)
12. Hallowed Grey (01:58)
13. OJ Skyrkts (02:21)
14. LxBxPx (01:10)
15. Son Of Beast (01:37)
16. I'm Sick (03:27)
17. Black Night White Light (06:53)

Лог извлечения ЕАС

Exact Audio Copy V1.0 beta 5 from 2. April 2015
EAC extraction logfile from 28. May 2015, 21:53
Short Sharp Shock / Short Sharp Shock
Used drive : PLEXTOR DVDR PX-810SA Adapter: 1 ID: 0
Read mode : Secure
Utilize accurate stream : Yes
Defeat audio cache : Yes
Make use of C2 pointers : No
Read offset correction : 48
Overread into Lead-In and Lead-Out : No
Fill up missing offset samples with silence : Yes
Delete leading and trailing silent blocks : No
Null samples used in CRC calculations : Yes
Used interface : Native Win32 interface for Win NT & 2000
Used output format : User Defined Encoder
Selected bitrate : 128 kBit/s
Quality : High
Add ID3 tag : No
Command line compressor : C:\Program Files (x86)\Exact Audio Copy\Flac\flac.exe
Additional command line options : -V -8 %source%
TOC of the extracted CD
Track | Start | Length | Start sector | End sector
---------------------------------------------------------
1 | 0:00.00 | 1:24.29 | 0 | 6328
2 | 1:24.29 | 1:50.69 | 6329 | 14647
3 | 3:15.23 | 1:28.71 | 14648 | 21318
4 | 4:44.19 | 1:33.48 | 21319 | 28341
5 | 6:17.67 | 1:35.20 | 28342 | 35486
6 | 7:53.12 | 2:52.07 | 35487 | 48393
7 | 10:45.19 | 2:22.61 | 48394 | 59104
8 | 13:08.05 | 1:28.42 | 59105 | 65746
9 | 14:36.47 | 1:35.05 | 65747 | 72876
10 | 16:11.52 | 2:27.07 | 72877 | 83908
11 | 18:38.59 | 1:59.13 | 83909 | 92846
12 | 20:37.72 | 1:58.38 | 92847 | 101734
13 | 22:36.35 | 2:21.63 | 101735 | 112372
14 | 24:58.23 | 1:10.16 | 112373 | 117638
15 | 26:08.39 | 1:37.55 | 117639 | 124968
16 | 27:46.19 | 3:27.56 | 124969 | 140549
17 | 31:14.00 | 6:53.52 | 140550 | 171576
Range status and errors
Selected range
Filename C:\2007 - Short Sharp Shock (MOSH352CD)\Short Sharp Shock - Short Sharp Shock.wav
Peak level 99.2 %
Extraction speed 6.7 X
Range quality 100.0 %
Test CRC E36F31AF
Copy CRC E36F31AF
Copy OK
No errors occurred
AccurateRip summary
Track 1 cannot be verified as accurate (confidence 2) [3DB25CC0], AccurateRip returned [CFBEFFEE] (AR v2)
Track 2 cannot be verified as accurate (confidence 2) [3B796A43], AccurateRip returned [1FEE6C2F] (AR v2)
Track 3 cannot be verified as accurate (confidence 2) [EBA45F51], AccurateRip returned [C9B8B08C] (AR v2)
Track 4 cannot be verified as accurate (confidence 2) [629D323A], AccurateRip returned [6FF235D2] (AR v2)
Track 5 cannot be verified as accurate (confidence 2) [64092EF8], AccurateRip returned [334867D5] (AR v2)
Track 6 cannot be verified as accurate (confidence 2) [ADB10FD5], AccurateRip returned [79DE1205] (AR v2)
Track 7 cannot be verified as accurate (confidence 2) [8A9B676D], AccurateRip returned [541A2706] (AR v2)
Track 8 cannot be verified as accurate (confidence 2) [9629EDDC], AccurateRip returned [B74A8ABA] (AR v2)
Track 9 cannot be verified as accurate (confidence 2) [08FBCAB9], AccurateRip returned [5087C94E] (AR v2)
Track 10 cannot be verified as accurate (confidence 2) [DDA535CE], AccurateRip returned [E95F1E91] (AR v2)
Track 11 cannot be verified as accurate (confidence 2) [16BBE45A], AccurateRip returned [77748CC1] (AR v2)
Track 12 cannot be verified as accurate (confidence 2) [1196D5D9], AccurateRip returned [DB48A087] (AR v2)
Track 13 cannot be verified as accurate (confidence 2) [BBEF5D68], AccurateRip returned [927857E3] (AR v2)
Track 14 cannot be verified as accurate (confidence 2) [564DA754], AccurateRip returned [4CBA575F] (AR v2)
Track 15 cannot be verified as accurate (confidence 2) [CC3C87CC], AccurateRip returned [C93D3C5F] (AR v2)
Track 16 cannot be verified as accurate (confidence 2) [682DDFA1], AccurateRip returned [66704955] (AR v2)
Track 17 cannot be verified as accurate (confidence 2) [2099656D], AccurateRip returned [6E51083A] (AR v2)
No tracks could be verified as accurate
You may have a different pressing from the one(s) in the database
End of status report
---- CUETools DB Plugin V2.1.6
[CTDB TOCID: zVTCjFid5yhsPHn5c_DQG4Y0Inc-] found
Submit result: zVTCjFid5yhsPHn5c_DQG4Y0Inc- has been confirmed
Track | CTDB Status
1 | (1/1) Accurately ripped
2 | (1/1) Accurately ripped
3 | (1/1) Accurately ripped
4 | (1/1) Accurately ripped
5 | (1/1) Accurately ripped
6 | (1/1) Accurately ripped
7 | (1/1) Accurately ripped
8 | (1/1) Accurately ripped
9 | (1/1) Accurately ripped
10 | (1/1) Accurately ripped
11 | (1/1) Accurately ripped
12 | (1/1) Accurately ripped
13 | (1/1) Accurately ripped
14 | (1/1) Accurately ripped
15 | (1/1) Accurately ripped
16 | (1/1) Accurately ripped
17 | (1/1) Accurately ripped
==== Log checksum 9152603CC6ABDD5EEBB688EF4165A0039406BF462ED53185E2FC461B11D04623 ====

2008 - The Dividing Line (00:32:50) - MOSH363CD

1. The Dividing Line (01:20)
2. Oil And Water (00:43)
3. The Bastard Stench (00:57)
4. Waiting Game (00:29)
5. Toxic Bee (01:41)
6. Thrash With A Small Moustache (02:05)
7. Can't Burst The Bubble (01:48)
8. Bored (00:21)
9. Invertebrate (02:02)
10. Purple Reign (02:34)
11. Hammerhead (01:50)
12. Skate and Destroy (00:49)
13. Ride The Best Fuck The Rest (01:40)
14. Flick The Switch (01:50)
15.Times Up (01:37)
16. Street Leech (02:10)
17. Cherry Island (01:27)
18. 3:06 (00:56)
19. Last Defence (02:17)
20. Unrest In The Northwest (04:03)

Лог извлечения ЕАС

Exact Audio Copy V1.0 beta 5 from 2. April 2015
EAC extraction logfile from 28. May 2015, 22:08
Short Sharp Shock / The Dividing Line
Used drive : PLEXTOR DVDR PX-810SA Adapter: 1 ID: 0
Read mode : Secure
Utilize accurate stream : Yes
Defeat audio cache : Yes
Make use of C2 pointers : No
Read offset correction : 48
Overread into Lead-In and Lead-Out : No
Fill up missing offset samples with silence : Yes
Delete leading and trailing silent blocks : No
Null samples used in CRC calculations : Yes
Used interface : Native Win32 interface for Win NT & 2000
Used output format : User Defined Encoder
Selected bitrate : 128 kBit/s
Quality : High
Add ID3 tag : No
Command line compressor : C:\Program Files (x86)\Exact Audio Copy\Flac\flac.exe
Additional command line options : -V -8 %source%
TOC of the extracted CD
Track | Start | Length | Start sector | End sector
---------------------------------------------------------
1 | 0:00.00 | 1:20.26 | 0 | 6025
2 | 1:20.26 | 0:43.31 | 6026 | 9281
3 | 2:03.57 | 0:57.37 | 9282 | 13593
4 | 3:01.19 | 0:29.41 | 13594 | 15809
5 | 3:30.60 | 1:41.38 | 15810 | 23422
6 | 5:12.23 | 2:05.56 | 23423 | 32853
7 | 7:18.04 | 1:48.73 | 32854 | 41026
8 | 9:07.02 | 0:21.29 | 41027 | 42630
9 | 9:28.31 | 2:02.50 | 42631 | 51830
10 | 11:31.06 | 2:34.37 | 51831 | 63417
11 | 14:05.43 | 1:50.39 | 63418 | 71706
12 | 15:56.07 | 0:49.55 | 71707 | 75436
13 | 16:45.62 | 1:40.13 | 75437 | 82949
14 | 18:26.00 | 1:50.60 | 82950 | 91259
15 | 20:16.60 | 1:37.52 | 91260 | 98586
16 | 21:54.37 | 2:10.32 | 98587 | 108368
17 | 24:04.69 | 1:27.58 | 108369 | 114951
18 | 25:32.52 | 0:56.59 | 114952 | 119210
19 | 26:29.36 | 2:17.54 | 119211 | 129539
20 | 28:47.15 | 4:03.29 | 129540 | 147793
Range status and errors
Selected range
Filename C:\2008 - The Dividing Line (MOSH363CD)\Short Sharp Shock - The Dividing Line.wav
Peak level 100.0 %
Extraction speed 6.4 X
Range quality 100.0 %
Test CRC FBFC05D2
Copy CRC FBFC05D2
Copy OK
No errors occurred
AccurateRip summary
Track 1 cannot be verified as accurate (confidence 4) [F7E7A970], AccurateRip returned [5A470BA9] (AR v2)
Track 2 cannot be verified as accurate (confidence 4) [D9AACF5C], AccurateRip returned [A8F49B2F] (AR v2)
Track 3 cannot be verified as accurate (confidence 4) [B9F09BE9], AccurateRip returned [1C439F7D] (AR v2)
Track 4 cannot be verified as accurate (confidence 4) [BFA947DC], AccurateRip returned [D300BF07] (AR v2)
Track 5 cannot be verified as accurate (confidence 4) [BAA97CDD], AccurateRip returned [38D77745] (AR v2)
Track 6 cannot be verified as accurate (confidence 4) [E42CFD19], AccurateRip returned [F81686B6] (AR v2)
Track 7 cannot be verified as accurate (confidence 4) [071BF563], AccurateRip returned [918E1522] (AR v2)
Track 8 cannot be verified as accurate (confidence 4) [A9D5CFB9], AccurateRip returned [EAB4A4AA] (AR v2)
Track 9 cannot be verified as accurate (confidence 4) [E9A0DC5B], AccurateRip returned [28B07CDC] (AR v2)
Track 10 cannot be verified as accurate (confidence 4) [49777AEF], AccurateRip returned [6AEACBE8] (AR v2)
Track 11 cannot be verified as accurate (confidence 3) [B8A8AA45], AccurateRip returned [0EFB1069] (AR v2)
Track 12 cannot be verified as accurate (confidence 3) [17B0D983], AccurateRip returned [2848D8A7] (AR v2)
Track 13 cannot be verified as accurate (confidence 3) [5BC23C06], AccurateRip returned [CC5759F5] (AR v2)
Track 14 cannot be verified as accurate (confidence 3) [CA8C298F], AccurateRip returned [FA95D7A5] (AR v2)
Track 15 cannot be verified as accurate (confidence 3) [7791738D], AccurateRip returned [EC3269D0] (AR v2)
Track 16 cannot be verified as accurate (confidence 3) [B1EC82B2], AccurateRip returned [C0BEA6B6] (AR v2)
Track 17 cannot be verified as accurate (confidence 3) [797C411D], AccurateRip returned [11094E95] (AR v2)
Track 18 cannot be verified as accurate (confidence 3) [CCD286F9], AccurateRip returned [7783F68B] (AR v2)
Track 19 cannot be verified as accurate (confidence 3) [451304CD], AccurateRip returned [BE5D7089] (AR v2)
Track 20 cannot be verified as accurate (confidence 3) [02752AEB], AccurateRip returned [D57CD7E8] (AR v2)
No tracks could be verified as accurate
You may have a different pressing from the one(s) in the database
End of status report
---- CUETools DB Plugin V2.1.6
[CTDB TOCID: EJFY2uF7MwvKOg.Ch6JLRmmr3kA-] found
Submit result: EJFY2uF7MwvKOg.Ch6JLRmmr3kA- has been confirmed
Track | CTDB Status
1 | (1/1) Accurately ripped
2 | (1/1) Accurately ripped
3 | (1/1) Accurately ripped
4 | (1/1) Accurately ripped
5 | (1/1) Accurately ripped
6 | (1/1) Accurately ripped
7 | (1/1) Accurately ripped
8 | (1/1) Accurately ripped
9 | (1/1) Accurately ripped
10 | (1/1) Accurately ripped
11 | (1/1) Accurately ripped
12 | (1/1) Accurately ripped
13 | (1/1) Accurately ripped
14 | (1/1) Accurately ripped
15 | (1/1) Accurately ripped
16 | (1/1) Accurately ripped
17 | (1/1) Accurately ripped
18 | (1/1) Accurately ripped
19 | (1/1) Accurately ripped
20 | (1/1) Accurately ripped
==== Log checksum 6612CA106CAB7ED8A54A381AA4833859A229BB2CB2380CC06103C9EB5FB819A9 ====

2011 - Problems to the Answer (00:41:44) - MOSH437CD

1. The Kill Floor (02:15)
2. Out The Loop (00:48)
3. Birdshit (00:15)
4. Laughing Leads To Crying (00:53)
5. White Bread (00:31)
6. Eat Me Drink Me Burn Me (02:13)
7. Foreign Body Plot (01:58)
8. Roar (01:01)
9. Sick Pleasures (01:13)
10. Direct Action (00:06)
11. What Would Cards Do? (00:35)
12. Man Against Man (02:14)
13. Tales Out Of School (01:41)
14. Rats Nest (01:22)
15. Cathode Control (01:15)
16. Painting By Numbers (00:39)
17. Quick Fix (00:26)
18. Future Primitive (04:10)
19. Trapped Inside Two States Of Mind (01:09)
20. Politics Of Convenience (01:22)
21. Here Comes The Neighbourhood (01:53)
22. Deep Sleep (01:32)
23. Speed Freaks (01:38)
24. Dismantle The Dream (02:34)
25. Strangenotes (07:51)

Лог извлечения ЕАС

Exact Audio Copy V1.0 beta 5 from 2. April 2015
EAC extraction logfile from 28. May 2015, 22:25
Short Sharp Shock / Problems to the Answer
Used drive : PLEXTOR DVDR PX-810SA Adapter: 1 ID: 0
Read mode : Secure
Utilize accurate stream : Yes
Defeat audio cache : Yes
Make use of C2 pointers : No
Read offset correction : 48
Overread into Lead-In and Lead-Out : No
Fill up missing offset samples with silence : Yes
Delete leading and trailing silent blocks : No
Null samples used in CRC calculations : Yes
Used interface : Native Win32 interface for Win NT & 2000
Used output format : User Defined Encoder
Selected bitrate : 128 kBit/s
Quality : High
Add ID3 tag : No
Command line compressor : C:\Program Files (x86)\Exact Audio Copy\Flac\flac.exe
Additional command line options : -V -8 %source%
TOC of the extracted CD
Track | Start | Length | Start sector | End sector
---------------------------------------------------------
1 | 0:00.00 | 2:15.23 | 0 | 10147
2 | 2:15.23 | 0:48.61 | 10148 | 13808
3 | 3:04.09 | 0:15.53 | 13809 | 14986
4 | 3:19.62 | 0:53.52 | 14987 | 19013
5 | 4:13.39 | 0:31.23 | 19014 | 21361
6 | 4:44.62 | 2:13.57 | 21362 | 31393
7 | 6:58.44 | 1:58.19 | 31394 | 40262
8 | 8:56.63 | 1:01.06 | 40263 | 44843
9 | 9:57.69 | 1:13.66 | 44844 | 50384
10 | 11:11.60 | 0:06.33 | 50385 | 50867
11 | 11:18.18 | 0:35.48 | 50868 | 53540
12 | 11:53.66 | 2:14.24 | 53541 | 63614
13 | 14:08.15 | 1:41.48 | 63615 | 71237
14 | 15:49.63 | 1:22.61 | 71238 | 77448
15 | 17:12.49 | 1:15.31 | 77449 | 83104
16 | 18:28.05 | 0:39.10 | 83105 | 86039
17 | 19:07.15 | 0:26.36 | 86040 | 88025
18 | 19:33.51 | 4:10.13 | 88026 | 106788
19 | 23:43.64 | 1:09.07 | 106789 | 111970
20 | 24:52.71 | 1:22.05 | 111971 | 118125
21 | 26:15.01 | 1:53.55 | 118126 | 126655
22 | 28:08.56 | 1:32.19 | 126656 | 133574
23 | 29:41.00 | 1:38.36 | 133575 | 140960
24 | 31:19.36 | 2:34.03 | 140961 | 152513
25 | 33:53.39 | 7:51.02 | 152514 | 187840
Range status and errors
Selected range
Filename C:\2011 - Problems to the Answer (MOSH437CD)\Short Sharp Shock - Problems to the Answer.wav
Peak level 100.0 %
Extraction speed 6.7 X
Range quality 100.0 %
Test CRC C5CAAF26
Copy CRC C5CAAF26
Copy OK
No errors occurred
AccurateRip summary
Track 1 accurately ripped (confidence 5) [99B1827E] (AR v2)
Track 2 accurately ripped (confidence 5) [3ED06737] (AR v2)
Track 3 accurately ripped (confidence 5) [64B49BF6] (AR v2)
Track 4 accurately ripped (confidence 5) [740F79E7] (AR v2)
Track 5 accurately ripped (confidence 5) [9792DF8E] (AR v2)
Track 6 accurately ripped (confidence 5) [69CD64A3] (AR v2)
Track 7 accurately ripped (confidence 5) [02D6C323] (AR v2)
Track 8 accurately ripped (confidence 5) [2BBAE237] (AR v2)
Track 9 accurately ripped (confidence 5) [FE9118BE] (AR v2)
Track 10 accurately ripped (confidence 5) [D94C3BD1] (AR v2)
Track 11 accurately ripped (confidence 5) [55B626C2] (AR v2)
Track 12 accurately ripped (confidence 5) [79558CA9] (AR v2)
Track 13 accurately ripped (confidence 5) [F1C7185D] (AR v2)
Track 14 accurately ripped (confidence 5) [37E69EFA] (AR v2)
Track 15 accurately ripped (confidence 5) [D2432F8A] (AR v2)
Track 16 accurately ripped (confidence 5) [67CAC42C] (AR v2)
Track 17 accurately ripped (confidence 5) [0D7E15CA] (AR v2)
Track 18 accurately ripped (confidence 5) [88E50BA9] (AR v2)
Track 19 accurately ripped (confidence 5) [C8445BEE] (AR v2)
Track 20 accurately ripped (confidence 5) [8244EE11] (AR v2)
Track 21 accurately ripped (confidence 5) [29672C4F] (AR v2)
Track 22 accurately ripped (confidence 5) [6E59F9D5] (AR v2)
Track 23 accurately ripped (confidence 5) [5B97C296] (AR v2)
Track 24 accurately ripped (confidence 5) [2B4C87E7] (AR v2)
Track 25 accurately ripped (confidence 5) [31F0D804] (AR v2)
All tracks accurately ripped
End of status report
---- CUETools DB Plugin V2.1.6
[CTDB TOCID: AwszVzdTwaRfrsecQzyKVbntBIQ-] found
Submit result: AwszVzdTwaRfrsecQzyKVbntBIQ- has been confirmed
Track | CTDB Status
1 | (2/2) Accurately ripped
2 | (2/2) Accurately ripped
3 | (2/2) Accurately ripped
4 | (2/2) Accurately ripped
5 | (2/2) Accurately ripped
6 | (2/2) Accurately ripped
7 | (2/2) Accurately ripped
8 | (2/2) Accurately ripped
9 | (2/2) Accurately ripped
10 | (2/2) Accurately ripped
11 | (2/2) Accurately ripped
12 | (2/2) Accurately ripped
13 | (2/2) Accurately ripped
14 | (2/2) Accurately ripped
15 | (2/2) Accurately ripped
16 | (2/2) Accurately ripped
17 | (2/2) Accurately ripped
18 | (2/2) Accurately ripped
19 | (2/2) Accurately ripped
20 | (2/2) Accurately ripped
21 | (2/2) Accurately ripped
22 | (2/2) Accurately ripped
23 | (2/2) Accurately ripped
24 | (2/2) Accurately ripped
25 | (2/2) Accurately ripped
==== Log checksum 77444E97A2EF019C22F7A5D7858CEE9077F9A02B0D3F395FDFA56D451D03D265 ====

2014 - Limp.Gasp.Collapse (0:37:16) - Prosthetic Records

1. For Your Own Good (2:57)
2. Dead Wood (2:29)
3. Burn All Fields (0:53)
4. Shape Of Things To Come (2:44)
5. The Sleeper Awakes (0:35)
6. Stress Of Excess (1:20)
7. Inside The Box (2:10)
8. Pig Owned (0:487
9. Beige (4:50)
10. Power Down (1:44)
11. Slave To Persuasion (2:06)
12. Good Books (1:50)
13. Capacity Overload (2:40)
14. Crushed By Drudgery (10:04)

EAC Log

Exact Audio Copy V1.0 beta 5 from 2. April 2015
EAC extraction logfile from 26. May 2015, 21:53
Short Sharp Shock / Limp.Gasp.Collapse.
Used drive : PLEXTOR DVDR PX-810SA Adapter: 1 ID: 0
Read mode : Secure
Utilize accurate stream : Yes
Defeat audio cache : Yes
Make use of C2 pointers : No
Read offset correction : 48
Overread into Lead-In and Lead-Out : No
Fill up missing offset samples with silence : Yes
Delete leading and trailing silent blocks : No
Null samples used in CRC calculations : Yes
Used interface : Native Win32 interface for Win NT & 2000
Used output format : User Defined Encoder
Selected bitrate : 128 kBit/s
Quality : High
Add ID3 tag : No
Command line compressor : C:\Program Files (x86)\Exact Audio Copy\Flac\flac.exe
Additional command line options : -V -8 %source%
TOC of the extracted CD
Track | Start | Length | Start sector | End sector
---------------------------------------------------------
1 | 0:00.00 | 2:57.69 | 0 | 13343
2 | 2:57.69 | 2:29.49 | 13344 | 24567
3 | 5:27.43 | 0:53.35 | 24568 | 28577
4 | 6:21.03 | 2:44.22 | 28578 | 40899
5 | 9:05.25 | 0:35.04 | 40900 | 43528
6 | 9:40.29 | 1:20.38 | 43529 | 49566
7 | 11:00.67 | 2:10.23 | 49567 | 59339
8 | 13:11.15 | 0:47.55 | 59340 | 62919
9 | 13:58.70 | 4:50.08 | 62920 | 84677
10 | 18:49.03 | 1:44.70 | 84678 | 92547
11 | 20:33.73 | 2:06.73 | 92548 | 102070
12 | 22:40.71 | 1:50.41 | 102071 | 110361
13 | 24:31.37 | 2:40.09 | 110362 | 122370
14 | 27:11.46 | 10:04.29 | 122371 | 167699
Range status and errors
Selected range
Filename C:\2014 - Limp.Gasp.Collapse (Prosthetic Records)\Short Sharp Shock - Limp.Gasp.Collapse..wav
Peak level 97.8 %
Extraction speed 6.5 X
Range quality 99.9 %
Test CRC 35A10644
Copy CRC 35A10644
Copy OK
No errors occurred
AccurateRip summary
Track 1 not present in database
Track 2 not present in database
Track 3 not present in database
Track 4 not present in database
Track 5 not present in database
Track 6 not present in database
Track 7 not present in database
Track 8 not present in database
Track 9 not present in database
Track 10 not present in database
Track 11 not present in database
Track 12 not present in database
Track 13 not present in database
Track 14 not present in database
None of the tracks are present in the AccurateRip database
End of status report
---- CUETools DB Plugin V2.1.6
[CTDB TOCID: afwZ_CAIEVreMZoKxSr9ybv6cgg-] disk not present in database
Submit result: afwZ_CAIEVreMZoKxSr9ybv6cgg- has been uploaded
==== Log checksum 79920DFEE6C5A91D63FF1460C5F3CB619050DE096E87AB6CA72D347769AB5E8D ====
[cybertorrent.ru].t20275.torrent 
Торрент: Зарегистрирован [ 2018-03-01 05:45 ] · 261A260CCEA061BFE22E9CA37206E56B3BCD412A

Скачать .torrent

Скачать

22 KB

Статус: проверено
Скачан: 0 раз
Размер: 1,61 GB
terms.php
[Профиль] [ЛС]
Показать сообщения:    
Ответить на тему

Текущее время: 22-Фев 03:54

Часовой пояс: UTC + 3



Вы не можете начинать темы
Вы не можете отвечать на сообщения
Вы не можете редактировать свои сообщения
Вы не можете удалять свои сообщения
Вы не можете голосовать в опросах
Вы не можете прикреплять файлы к сообщениям
Вы можете скачивать файлы