Статистика раздачи
Размер:  2,18 GB   |    Зарегистрирован:  3 месяца 7 дней   |    Скачан:  0 раз

Полного источника не было: Никогда

 
   
 
 

lopster ®

Пол:
Не указан
Стаж:
3 месяца 7 дней
Сообщений:
612

О чём ещё говорят мужчины- Жанр: комедия
Год выпуска: 2011
Продолжительность: 01:38:28
Режиссёр: Дмитрий Дьяченко
В ролях: Леонид Барац, Александр Демидов, Ростислав Хаит, Алёна Бабенко, Елена Подкаминская, Екатерина Вилкова, Виталий Хаев, Анатолий Белый, Денис Шведов, Наталья Швец, Максим Виторган, Алексей Макаров, Владимир Меньшов
Описание: Леша, Слава и Камиль в трудную минуту приходят на помощь своему другу Саше. Накануне Нового года он умудрился вступить в конфликт с женой сотрудника силовых структур, и теперь четверо друзей заперлись в офисе рекламного агентства, которым руководит Саша, пытаясь придумать выход из сложившейся ситуации и коротая время в мужских разговорах.
Сэмпл: http://sendfile.su/1310095

Качество видео: BDRip-AVC (RAZGOVORY_2_HDCLUB)
Формат видео: MKV
Видео: 1012x430 (2.35:1), 24 fps, ~2719 kbps avg, 0,260 bit/pixel
Аудио: 48 kHz, AC3 Dolby Digital, 3/2 (L,C,R,l,r) + LFE ch, ~448kbps

MediaInfo

General
Unique ID : 221634380288216023618773217784358808226 (0xA6BD3A9DCBD1367A8E14CC435A80AAA2)
Format : Matroska
Format version : Version 4 / Version 2
File size : 2.18 GiB
Duration : 1h 38mn
Overall bit rate : 3 166 Kbps
Encoded date : UTC 2017-02-18 09:05:55
Writing application : mkvmerge v9.8.0 ('Kuglblids') 64bit
Writing library : libebml v1.3.4 + libmatroska v1.4.5
Video #1
ID : 1
Format : AVC
Format/Info : Advanced Video Codec
Format profile : High@L4.1
Format settings, CABAC : Yes
Format settings, ReFrames : 11 frames
Codec ID : V_MPEG4/ISO/AVC
Duration : 1h 38mn
Bit rate : 2 719 Kbps
Width : 1 012 pixels
Height : 430 pixels
Display aspect ratio : 2.35:1
Frame rate mode : Constant
Frame rate : 24.000 fps
Color space : YUV
Chroma subsampling : 4:2:0
Bit depth : 8 bits
Scan type : Progressive
Bits/(Pixel*Frame) : 0.260
Stream size : 1.87 GiB (86%)
Writing library : x264 core 148 r2638 7599210
Encoding settings : cabac=1 / ref=11 / deblock=1:-3:-2 / analyse=0x3:0x133 / me=umh / subme=10 / psy=1 / psy_rd=1.00:0.00 / mixed_ref=1 / me_range=32 / chroma_me=1 / trellis=2 / 8x8dct=1 / cqm=0 / deadzone=21,11 / fast_pskip=0 / chroma_qp_offset=-2 / threads=6 / lookahead_threads=1 / sliced_threads=0 / nr=0 / decimate=1 / interlaced=0 / bluray_compat=0 / constrained_intra=0 / bframes=13 / b_pyramid=2 / b_adapt=2 / b_bias=0 / direct=1 / weightb=1 / open_gop=0 / weightp=2 / keyint=250 / keyint_min=23 / scenecut=40 / intra_refresh=0 / rc=2pass / mbtree=0 / bitrate=2719 / ratetol=1.0 / qcomp=0.65 / qpmin=0 / qpmax=69 / qpstep=4 / cplxblur=20.0 / qblur=0.5 / ip_ratio=1.40 / pb_ratio=1.30 / aq=3:0.90
Language : English
Default : Yes
Forced : No
Audio #2
ID : 2
Format : AC-3
Format/Info : Audio Coding 3
Mode extension : CM (complete main)
Format settings, Endianness : Big
Codec ID : A_AC3
Duration : 1h 38mn
Bit rate mode : Constant
Bit rate : 448 Kbps
Channel(s) : 6 channels
Channel positions : Front: L C R, Side: L R, LFE
Sampling rate : 48.0 KHz
Frame rate : 31.250 fps (1536 spf)
Compression mode : Lossy
Stream size : 316 MiB (14%)
Language : Russian
Default : Yes
Forced : No

лог

raw [info]: 1012x430p 1:1 @ 10000000/416667 fps (cfr)
x264 [info]: using SAR=1/1
x264 [info]: using cpu capabilities: MMX2 SSE2Fast SSSE3 SSE4.2 AVX XOP FMA4 FMA3 LZCNT BMI1
x264 [info]: profile High, level 4.1
x264 [info]: frame I:1389 Avg QP:17.15 size: 80515
x264 [info]: frame P:30216 Avg QP:19.68 size: 26756
x264 [info]: frame B:110191 Avg QP:21.50 size: 9854
x264 [info]: consecutive B-frames: 2.0% 2.3% 8.9% 20.5% 18.1% 34.5% 6.6% 2.6% 2.1% 0.7% 0.7% 0.5% 0.2% 0.2%
x264 [info]: mb I I16..4: 3.7% 75.1% 21.2%
x264 [info]: mb P I16..4: 0.9% 12.0% 1.9% P16..4: 37.7% 23.7% 17.4% 0.8% 0.3% skip: 5.3%
x264 [info]: mb B I16..4: 0.1% 1.1% 0.2% B16..8: 39.3% 13.6% 4.4% direct: 7.7% skip:33.5% L0:44.0% L1:41.4% BI:14.6%
x264 [info]: 8x8 transform intra:78.5% inter:59.7%
x264 [info]: coded y,uvDC,uvAC intra: 87.4% 88.6% 69.8% inter: 32.4% 29.3% 5.8%
x264 [info]: i16 v,h,dc,p: 43% 17% 9% 31%
x264 [info]: i8 v,h,dc,ddl,ddr,vr,hd,vl,hu: 11% 11% 10% 9% 12% 12% 12% 11% 12%
x264 [info]: i4 v,h,dc,ddl,ddr,vr,hd,vl,hu: 10% 21% 5% 8% 12% 12% 11% 10% 11%
x264 [info]: i8c dc,h,v,p: 40% 23% 21% 17%
x264 [info]: Weighted P-Frames: Y:4.6% UV:2.5%
x264 [info]: ref P L0: 43.0% 13.3% 17.9% 6.3% 5.5% 3.7% 3.5% 1.9% 1.8% 1.5% 1.6% 0.2% 0.0%
x264 [info]: ref B L0: 65.4% 13.7% 7.3% 4.0% 3.0% 2.3% 2.0% 1.3% 0.8% 0.3%
x264 [info]: ref B L1: 90.5% 9.5%
x264 [info]: kb/s:2716.45
x264 [total]: encoded 141796 frames, 9.07 fps, 2716.45 kb/s

Скриншоты


[cybertorrent.ru].t203.torrent 
Торрент: Зарегистрирован [ 2018-02-15 15:34 ] · A4034A538B010CC5759B315089EE859955ED33E1

Скачать .torrent

Скачать

11 KB

Статус: проверено
Скачан: 0 раз
Размер: 2,18 GB
Профиль [ЛС]
Показать сообщения:    

Текущее время: 23-Май 07:20

Часовой пояс: UTC ± 0



Вы не можете начинать темы
Вы не можете отвечать на сообщения
Вы не можете редактировать свои сообщения
Вы не можете удалять свои сообщения
Вы не можете голосовать в опросах
Вы не можете прикреплять файлы к сообщениям
Вы можете скачивать файлы