Статистика раздачи
Размер:  2,16 GB   |    Зарегистрирован:  6 месяцев 7 дней   |    Скачан:  0 раз
Сидов:  40  [  0 KB/s  ]   Личеров:  4  [  0 KB/s  ]  
   
 

Гость ®

Пол:
Не указан

Как выйти замуж. Инструкция
Год выпуска: 2019
Производство: 1-2-3 Продакшн по заказу телеканала ТВ3
Жанр: комедия
Продолжительность: ~00:40:00 серия
Субтитры: нет
Режиссёр: Аксинья Гог
В ролях: Яна Гурьянова, Петар Зекавица, Ёла Санько, Владимир Жеребцов, Амбарцум Кабанян, Ольга Дибцева, Юрий Быков, Алексей Утин, Александр Самохин, Сергей Чирков, Алексей Литвиненко, Константин Чепурин

Описание: Главная героиня комедии «Как выйти замуж. Инструкция» — успешная, но очень одинокая журналистка Полина. После измены бывшего возлюбленного она боится заводить серьезные отношения с мужчинами, чтобы вновь не ошибиться с выбором. Однажды работа девушки приносит ей интересное знакомство и необычный подарок — магический браслет. С его помощью она может «примерить жизнь» с понравившимся ей мужчиной и перенестись на три года вперед, чтобы проверить, как сложится их совместное будущее. В итоге Полина отправляется в увлекательное путешествие по своим альтернативным судьбам, но поиски идеального жениха неожиданно затягиваются.

Реклама: Нет.
Кино-театр
Все раздачи сериала
Sample
Качество: WEBRip - Files-x
Формат: AVI
Видео кодек: XviD
Аудио кодек: AC3
Видео: 720x400 (1.80:1), 25 fps, XviD build 73 ~1600 kbps avg, 0.222 bit/pixel
Аудио: 48.0 kHz, AC3 Dolby Digital, 2/0 (L,R) ch, ~ 192 kbps

MI

General
Complete name : D:\Как выйти замуж. Инструкция.2019.WEB-DLRip. Files-x\01. Как выйти замуж. Инструкция.2019.WEB-DLRip. Files-x.avi
Format : AVI
Format/Info : Audio Video Interleave
File size : 519 MiB
Duration : 40 min 16 s
Overall bit rate : 1 802 kb/s
Writing application : VirtualDubMod 1.5.10.3 | www.virtualdub-fr.org || (build 2550/release)
Writing library : VirtualDubMod build 2550/release
Video
ID : 0
Format : MPEG-4 Visual
Format profile : Advanced Simple@L5
Format settings : BVOP1 / Custom Matrix
Format settings, BVOP : 1
Format settings, QPel : No
Format settings, GMC : No warppoints
Format settings, Matrix : Custom
Codec ID : XVID
Codec ID/Hint : XviD
Duration : 40 min 16 s
Bit rate : 1 600 kb/s
Width : 720 pixels
Height : 400 pixels
Display aspect ratio : 16:9
Frame rate : 25.000 FPS
Color space : YUV
Chroma subsampling : 4:2:0
Bit depth : 8 bits
Scan type : Progressive
Compression mode : Lossy
Bits/(Pixel*Frame) : 0.222
Stream size : 461 MiB (89%)
Writing library : XviD 73
Audio
ID : 1
Format : AC-3
Format/Info : Audio Coding 3
Codec ID : 2000
Duration : 40 min 16 s
Bit rate mode : Constant
Bit rate : 192 kb/s
Channel(s) : 2 channels
Channel positions : Front: L R
Sampling rate : 48.0 kHz
Frame rate : 31.250 FPS (1536 SPF)
Bit depth : 16 bits
Compression mode : Lossy
Stream size : 55.3 MiB (11%)
Alignment : Split accross interleaves
Interleave, duration : 40 ms (1.00 video frame)
Interleave, preload duratio : 500 ms
Service kind : Complete Main

Скриншоты


[cybertorrent.ru].t2045.torrent 
Торрент: Зарегистрирован [ 2019-04-14 15:48 ] · 66F034A6F533F8F9B460BA524E3A0E8A34A9B504

Скачать .torrent

Скачать

12 KB

Статус: проверено
Скачан: 0 раз
Размер: 2,16 GB
terms.php
Показать сообщения:    

Текущее время: 22-Окт 08:15

Часовой пояс: UTC ± 0



Вы не можете начинать темы
Вы не можете отвечать на сообщения
Вы не можете редактировать свои сообщения
Вы не можете удалять свои сообщения
Вы не можете голосовать в опросах
Вы не можете прикреплять файлы к сообщениям
Вы можете скачивать файлы