Статистика раздачи
Размер:  666 MB   |    Зарегистрирован:  6 месяцев 3 дня   |    Скачан:  0 раз

Полного источника не было: Никогда

   
 

Гость ®

Пол:
Не указан

--Игра престолов | Game of Thrones-- • Год выпуска: 2019
• Страна: США
• Жанр: Фэнтези, драма, приключения, экранизация
• Продолжительность: ~ 00:55:00-• Перевод: Профессиональный (многоголосый закадровый) | Amedia-• Режиссёр: Алан Тейлор, Даниэль Минахан, Дэвид Наттер, Брайан Кирк, Тимоти Ван Паттен, Дэвид Петрарка-• В ролях: Лена Хиди, Питер Динклэйдж, Мишель Фэйрли, Эмилия Кларк, Кит Харингтон, Николай Костер-Валдау, Иэн Глен, Эйден Гиллен, Элфи Оуэн-Аллен, Мэйси Уильямс, Софи Тернер, Сибель Кекилли, Джеймс Космо, Стивен Диллэйн, Гетин Энтони, Гвендолин Кристи, Натали Дормер-• Описание: «Игра престолов» новый сериал HBO, основанный на бестселлерах Джорджа Р.Р. Мартина. В мире, где лето и зимы длятся десятилетиями, на кону корона Вестероса. Предательство, похоть, интриги и сверхъестественные силы сотрясают все четыре стороны Королевства — от плетущего интриги юга, диких восточных земель, до замерзшего севера и древней Стены, что защищает королевство от тьмы за нею. Короли и королевы, рыцари и мятежники, лжецы и благородные люди борются за власть в кровавом сражении за Железный Трон.
- -[box=#aed8ff,#003465]Ссылка на предыдущие и альтернативные раздачи[/box]--• Качество: WEB-DLRip
• Формат: AVI
• Видео: XviD, 720x400 (16:9), 23.976 fps, ~1400 kbps
• Аудио #1: MP3, 48 kHz, 2 ch, 128 kbps, CBR - Rus
• Аудио #2: MP3, 48 kHz, 2 ch, 128 kbps, CBR - Eng
• Субтитры: Русские полные (Амедиа), английские полные.
• Примечание: Рекламы нет
--

MediaInfo

Код:Общее
Формат : AVI
Формат/Информация : Audio Video Interleave
Размер файла : 666 Мбайт
Продолжительность : 55 м.
Общий поток : 1670 Кбит/сек
Программа кодирования : VirtualDubMod 1.5.10.3 | www.virtualdub-fr.org || (build 2550/release)
Библиотека кодирования : VirtualDubMod build 2550/release
Видео
Идентификатор : 0
Формат : MPEG-4 Visual
Профиль формата : Advanced Simple@L5
Параметр BVOP формата : 2
Параметр QPel формата : Нет
Параметр GMC формата : Без точки перехода
Параметр матрицы формата : Выборочная
Идентификатор кодека : XVID
Идентификатор кодека/Подсказка : XviD
Продолжительность : 55 м.
Битрейт : 1400 Кбит/сек
Ширина : 720 пикселей
Высота : 400 пикселей
Соотношение сторон : 16:9
Частота кадров : 23,976 (23976/1000) кадра/сек
Цветовое пространство : YUV
Субдискретизация насыщенности : 4:2:0
Битовая глубина : 8 бит
Тип развёртки : Прогрессивная
Метод сжатия : С потерями
Бит/(Пиксели*Кадры) : 0.203
Размер потока : 558 Мбайт (84%)
Библиотека кодирования : XviD 73
Аудио #1
Идентификатор : 1
Формат : MPEG Audio
Версия формата : Version 1
Профиль формата : Layer 3
Режим : Joint stereo
Идентификатор кодека : 55
Идентификатор кодека/Подсказка : MP3
Продолжительность : 55 м.
Вид битрейта : Постоянный
Битрейт : 128 Кбит/сек
Каналы : 2 канала
Частота : 48,0 КГц
Метод сжатия : С потерями
Размер потока : 51,0 Мбайт (8%)
Выравнивание : Соединение по промежуткам
Продолжительность промежутка : 42 мс. (1,00 видеокадр)
Время предзагрузки промежутка : 504 мс.
Аудио #2
Идентификатор : 2
Формат : MPEG Audio
Версия формата : Version 1
Профиль формата : Layer 3
Режим : Joint stereo
Идентификатор кодека : 55
Идентификатор кодека/Подсказка : MP3
Продолжительность : 55 м.
Вид битрейта : Постоянный
Битрейт : 128 Кбит/сек
Каналы : 2 канала
Частота : 48,0 КГц
Метод сжатия : С потерями
Размер потока : 51,0 Мбайт (8%)
Выравнивание : Соединение по промежуткам
Продолжительность промежутка : 42 мс. (1,00 видеокадр)
Время предзагрузки промежутка : 504 мс.

Скриншоты

Раздача ведется путем добавления новых серий

Когда раздача ведётся путём добавления новых серий, при каждом добавлении создётся новый торрент. Чтобы начать докачку новой серии, пользователям необходимо сделать следующее:
(1) остановить скачивание,
(2) удалить старый торрент у себя из клиента (старые серии удалять не надо),
(3) скачать новый торрент и запустить его у себя в клиенте вместо старого, при этом указать клиенту путь в старую папку, куда и должно происходить скачивание новых серий.
Ваш клиент при этом должен произвести хеширование (проверку) старой папки (если не производит сам - помогите ему сделать это), и будет докачивать только те серии, которых у вас ещё нет. Старые серии при этом не удаляются, а продолжают раздаваться!
Eсли вы уже удалили старые серии, то предотвратить повторную закачку старых серий можно, отжав галочку в соответсвующих местах при запуске нового торрента. По возможности, желательно не удалять старые серии как можно дольше, чтобы релизёр не столько продолжал раздавать старые серии, а смог сконцентрироваться на новых.
-
[cybertorrent.ru].t2066.torrent 
Торрент: Зарегистрирован [ 2019-04-15 16:13 ] · 3FBF40515A6E62A731C7D03AC30828D9D4892C5D

Скачать .torrent

Скачать

14 KB

Статус: проверено
Скачан: 0 раз
Размер: 666 MB
terms.php
Показать сообщения:    

Текущее время: 19-Окт 05:33

Часовой пояс: UTC ± 0



Вы не можете начинать темы
Вы не можете отвечать на сообщения
Вы не можете редактировать свои сообщения
Вы не можете удалять свои сообщения
Вы не можете голосовать в опросах
Вы не можете прикреплять файлы к сообщениям
Вы можете скачивать файлы