Статистика раздачи
Размер:  16,71 GB   |    Зарегистрирован:  9 месяцев 26 дней   |    Скачан:  0 раз

Полного источника не было: Никогда

 
   
 
 

Gomer ®

Пол:
Не указан
Стаж:
9 месяцев 27 дней
Сообщений:
40

-Год выпуска: 2013
Страна: США
Студия: Twentieth Century Fox Film Corporation
Жанр: Ситком, чёрный юмор, буффонада, комедия, пародия
Продолжительность: ~22 минуты (серия)
Перевод:
  • Профессиональный (многоголосый закадровый) студия "ZoneVision" по заказу ,
  • Профессиональный (многоголосый закадровый) Filiza Studio
-Режиссёр: Сет МакФарлейн / Seth MacFarlane-Роли озвучивали:
  • Оригинал: Сет МакФарлейн, Алекс Борштейн, Сет Грин, Мила Кунис, Майк Генри и другие.
  • 2x2: Олег Форостенко, Илья Хвостиков, Людмила Ильина.
  • Filiza Studio: Света, darkFIL, Михаил Литвин (Little), Алексей Филимончев (L0cDoG), Сергей Пономарёв, Пётр "Гланц" Иващенко и другие.
-Описание: "Гриффины" (Family Guy) - анимационное ТВ-Шоу, созданное Сетом МакФарлейном (Seth MacFarlane) для телеканала FOX. Как нетрудно догадаться, главными героями шоу является семейка Гриффинов: тупой, но полный сумашедших идей, составляющих львиную долю шуток сериала, отец семейства Питер; его любящя и терпеливая жена Лойс, всеми силами пытающаяся превратить Гриффинов в нормальную семью; их интеллектуально развитый не по годам, вынашивающий идею мирового господства младший сын Стьюи; дочь-ботаник, обречённая из-за этого на одиночество и непонимание как в школе так и дома, Мэг; и 13-ти летний отсталый в развитии лет на 10, сын Крис. Также полноценным членом семьи является пёс Брайн - склонный к меланхолии эстет, спокойно наблюдающий с бокалом вина в лапе над приключениями Питера и остальных членов семьи (и это при всём притом, что остальные собаки в сериале не являются очеловеченными).-РЕЛИЗ ОТ: V.SERIJ2013-Спасибо #Antisnl# за запись звука, АКТЕР'у (т.е., CEBEPu2D) за сборку озвучки Filiza Studio и v.serij2013 (т.е., мне) за синхронизацию аудиодорожки 2x2.-Качество: WEB-DL 1080p
Формат: MKV
Видео кодек: H.264
Аудио кодек: AC3
Видео: H.264, 1912x1072 (16:9), 23.976 fps, ~3500 kbps, 0.070 bit/pixel
Аудио:
  • русская |2x2|: AC3, 48 kHz, 2 ch, 192 kbps
    русская |Filiza Studio| (1-6, 8-21 серии): AC3, 48 kHz, 6 ch, 384 kbps
  • английская |Оригинал|: AC3, 48 kHz, 6 ch, 384 kbps
Субтитры: русские |Notabenoid|, английские-Сэмпл\ Все раздачи мультсериала- -

Список серий

12 сезон (2013 год):
01. Finders Keepers
02. Vestigial Peter
03. Quagmire's Quagmire
04. A Fistful Of Meg
05. Boopa-Dee Bappa-Dee
06. Life Of Brian
07. Into Harmony's Way
08. Christmas Guy
09. Peter Problems
10. Grimm Job
11. Brian's a Bad Father
12. Mom's the Word
13. 3 Acts of God
14. Fresh Heir
15. Secondhand Spoke
16. Herpe, the Love Sore
17. The Most Interesting Man in the World
18. Baby Got Black
19. Meg Stinks!
20. He's Bla-ack!
21. Chap Stewie

Media Info

Код:General
UniqueID : 239696231367394501021450342538650805211 (0xB453D0A0DF6DA1349A5AEFAAAFDB63DB)
Complete name : F:\Мои документы\Вадим\Моё видео (Вадим)\HD\Animated Series (HD)\Family Guy (HD)\Family Guy Season 12 (WEB-DL 1080p)\01. Finders Keepers.mkv
Format : Matroska
File size : 693 MiB
Duration : 21mn 36s
Overall bit rate : 4 485 Kbps
Movie name : Family Guy Season 12 (WEB-DL | 1080p | v.serij2013)
Encoded date : UTC 2014-11-02 08:49:03
Writing application : mkvmerge v5.8.0 ('No Sleep / Pillow') built on Sep 2 2012 15:37:04
Writing library : libebml v1.2.3 + libmatroska v1.3.0
Video
ID : 1
Format : AVC
Format/Info : Advanced Video Codec
Format profile : High@L4.0
Format settings, CABAC : Yes
Format settings, ReFrames : 4 frames
Format settings, GOP : M=2, N=25
Codec ID : V_MPEG4/ISO/AVC
Duration : 21mn 36s
Bit rate mode : Variable
Bit rate : 3 435 Kbps
Width : 1 912 pixels
Height : 1 072 pixels
Display aspect ratio : 16:9
Frame rate : 23.976 fps
Color space : YUV
Chroma subsampling : 4:2:0
Bit depth : 8 bits
Scan type : Progressive
Bits/(Pixel*Frame) : 0.070
Stream size : 531 MiB (77%)
Language : English
Default : Yes
Forced : No
Color primaries : BT.709-5, BT.1361, IEC 61966-2-4, SMPTE RP177
Transfer characteristics : BT.709-5, BT.1361
Matrix coefficients : BT.709-5, BT.1361, IEC 61966-2-4 709, SMPTE RP177
Audio #1
ID : 2
Format : AC-3
Format/Info : Audio Coding 3
Mode extension : CM (complete main)
Format settings, Endianness : Big
Codec ID : A_AC3
Duration : 21mn 36s
Bit rate mode : Constant
Bit rate : 192 Kbps
Channel(s) : 2 channels
Channel positions : Front: L R
Sampling rate : 48.0 KHz
Bit depth : 16 bits
Compression mode : Lossy
Stream size : 29.7 MiB (4%)
Title : MVO (2x2)
Language : Russian
Default : Yes
Forced : No
Audio #2
ID : 3
Format : AC-3
Format/Info : Audio Coding 3
Mode extension : CM (complete main)
Format settings, Endianness : Big
Codec ID : A_AC3
Duration : 21mn 36s
Bit rate mode : Constant
Bit rate : 384 Kbps
Channel(s) : 6 channels
Channel positions : Front: L C R, Side: L R, LFE
Sampling rate : 48.0 KHz
Bit depth : 16 bits
Compression mode : Lossy
Stream size : 59.3 MiB (9%)
Title : MVO (Filiza Studio)
Language : Russian
Default : No
Forced : No
Audio #3
ID : 4
Format : AC-3
Format/Info : Audio Coding 3
Mode extension : CM (complete main)
Format settings, Endianness : Big
Codec ID : A_AC3
Duration : 21mn 36s
Bit rate mode : Constant
Bit rate : 384 Kbps
Channel(s) : 6 channels
Channel positions : Front: L C R, Side: L R, LFE
Sampling rate : 48.0 KHz
Bit depth : 16 bits
Compression mode : Lossy
Video delay : 3ms
Stream size : 59.3 MiB (9%)
Title : Original
Language : English
Default : No
Forced : No
Text #1
ID : 5
Format : UTF-8
Codec ID : S_TEXT/UTF8
Codec ID/Info : UTF-8 Plain Text
Title : 2x2 (UNCUT)
Language : Russian
Default : Yes
Forced : No
Text #2
ID : 6
Format : UTF-8
Codec ID : S_TEXT/UTF8
Codec ID/Info : UTF-8 Plain Text
Title : Notabenoid
Language : Russian
Default : No
Forced : No
Text #3
ID : 7
Format : UTF-8
Codec ID : S_TEXT/UTF8
Codec ID/Info : UTF-8 Plain Text
Title : Original
Language : English
Default : No
Forced : No
-
[cybertorrent.ru].t2071.torrent 
Торрент: Зарегистрирован [ 2018-02-16 08:44 ] · 491BA84F5FDA7278BBFBC21C26D08AADBDB59F41

Скачать .torrent

Скачать

43 KB

Статус: проверено
Скачан: 0 раз
Размер: 16,71 GB
Профиль [ЛС]
Показать сообщения:    

Текущее время: 15-Дек 07:05

Часовой пояс: UTC ± 0



Вы не можете начинать темы
Вы не можете отвечать на сообщения
Вы не можете редактировать свои сообщения
Вы не можете удалять свои сообщения
Вы не можете голосовать в опросах
Вы не можете прикреплять файлы к сообщениям
Вы можете скачивать файлы
Torrents24.ru открытый BitTorrent Torrents24.pl открытый BitTorrent CyberTorrent.ru открытый BitTorrent BtList.ru рейтинг BitTorrent трекеров Яндекс.Метрика