BitTorrent клиенты



Мы из Кронштадта (Ефим Дзиган) [1936, СССР, военный, драма, исторический, DVB] [Оригинальная версия]

Ответить на тему
 
Автор Сообщение

JetGun ®

Пол: Не указан

Стаж: 1 год

Сообщений: 437

Создавать темы 06-Фев-2018 00:55

[Цитировать]

Мы из Кронштадта [Оригинальная версия]- Страна: СССР
Жанр: военный, драма, исторический
Год выпуска: 1936
Продолжительность: 01:29:02-Режиссер: Ефим Дзиган
В ролях: Василий Зайчиков, Георгий Бушуев, Николай Ивакин, Олег Жаков, Раиса Есипова, Петр Кириллов, Петр Соболевский, Федор Селезнев, Э. Гунн, Миша Гуриненко, Николай Головин...-Описание: Действие фильма происходит в октябре 1919 года. Белогвардейцы и войска интервентов осаждают Петроград. На помощь пехотинцам, обороняющим город с суши, в Кронштадте организуется экспедиционный морской отряд, который вступает в неравный бой с противником. Группа моряков попадает в плен и гибнет, сброшенная белыми с обрыва в море. Спастись удается одному - Артему Балашову. В Кронштадте он получает задание возглавить новый десант моряков. Поддержанные матросами в критический момент сражения, пехотинцы переходят в наступление и одерживают победу.-Доп. информация: В фильме впервые прозвучала фраза «Нас мало, но мы в тельняшках!», ставшая позднее известной поговоркой.-Релиз: -Семпл: http://sendfile.su/1392403-Тип релиза: DVB (Канал "Культура")
Контейнер: TS
Видео: 720x576 (4:3) @ 786x576, 25.000 fps, AVC, ~2437 Kbps, 0.235 bits/pixel
Аудио: Русский, 48.0 KHz, MPEG-1 Audio layer 2, 2 ch, 192 Kbps

MediaInfo

General
ID : 1 (0x1)
Complete name : Мы из Кронштадта (Ефим Дзиган) 1936 Культура.ts
Format : MPEG-TS
File size : 1.72 GiB
Duration : 1 h 29 min
Overall bit rate mode : Variable
Overall bit rate : 2 767 kb/s
Video
ID : 205 (0xCD)
Menu ID : 1 (0x1)
Format : AVC
Format/Info : Advanced Video Codec
Format profile : High@L3
Format settings : CABAC / 4 Ref Frames
Format settings, CABAC : Yes
Format settings, RefFrames : 4 frames
Codec ID : 27
Duration : 1 h 29 min
Bit rate : 2 437 kb/s
Width : 720 pixels
Height : 576 pixels
Display aspect ratio : 4:3
Frame rate : 25.000 FPS
Standard : Component
Color space : YUV
Chroma subsampling : 4:2:0
Bit depth : 8 bits
Scan type : Interlaced
Scan type, store method : Separated fields
Scan order : Top Field First
Bits/(Pixel*Frame) : 0.235
Stream size : 1.52 GiB (88%)
Color range : Limited
Color primaries : BT.601 PAL
Transfer characteristics : BT.470 System B, BT.470 System G
Matrix coefficients : BT.470 System B, BT.470 System G
Audio
ID : 305 (0x131)
Menu ID : 1 (0x1)
Format : MPEG Audio
Format version : Version 1
Format profile : Layer 2
Codec ID : 3
Duration : 1 h 29 min
Bit rate mode : Constant
Bit rate : 192 kb/s
Channel(s) : 2 channels
Sampling rate : 48.0 kHz
Compression mode : Lossy
Delay relative to video : -40 ms
Stream size : 122 MiB (7%)
Language : Russian
Text
ID : 505 (0x1F9)-888
Menu ID : 1 (0x1)
Format : Teletext Subtitle
Language : Russian
Language, more info : For hearing impaired people
[Профиль] [ЛС]
Показать сообщения:    
Ответить на тему

Текущее время: 20-Фев 00:13

Часовой пояс: UTC + 3



Вы не можете начинать темы
Вы не можете отвечать на сообщения
Вы не можете редактировать свои сообщения
Вы не можете удалять свои сообщения
Вы не можете голосовать в опросах
Вы не можете прикреплять файлы к сообщениям
Вы можете скачивать файлы