Статистика раздачи
Размер:  1,02 GB   |    Зарегистрирован:  3 месяца 7 дней   |    Скачан:  0 раз

Полного источника не было: Никогда

 
   
 
 

lopster ®

Пол:
Не указан
Стаж:
3 месяца 7 дней
Сообщений:
612

Майор Гром
Жанр: Короткометражка, Приключения, Фантастика, Драма, Боевик
Год выпуска: 2017
Продолжительность: 00:28:49
Режиссёр: Владимир Беседин
В ролях:
Александр Горбатов, Иван Фоминов, Антон Кузнецов, Данила Якушев, Ойсель Море Деспайгне, Мария Ульянова, Алина Бунк, Анатолий Кощеев, Евгения Щербакова
Описание: Игорь Гром — опытный следователь из Санкт-Петербурга, известный своим пробивным характером и непримиримой позицией по отношению к преступникам всех мастей. Неимоверная сила, аналитический склад ума и неподкупность — всё это делает майора Грома идеальным полицейским. Работая не покладая рук, он всегда доводит начатое до конца и никогда не пасует перед трудностями, стоящими на пути.
Фильм снят по мотивам одноименного российского комикса.
Доп. информация:
Сценарий: Артем Габрелянов, Владимир Беседин
Продюсер: Артем Габрелянов, Владимир Беседин, Федор Кан, Роман Котков
Оператор: Арсений Кан
Композитор: Роман Селиверстов
Художник: Сергей Шарамет
Премьера: 19 февраля 2017

Сэмпл: https://yadi.sk/i/b5YLoMJl3EGoTo
Качество видео: WEB-DL
Формат видео: MP4
Видео: AVC, 2048*1152 (16:9), 24 кадра/сек, 4958 Кбит/сек,
Аудио: Русский, AAC LC, 128 Кбит/сек, 44,1 КГц, 2 канала

MediaInfo

Общее
Полное имя : D:\Фильмы и Мульты\Bubble_Майор Гром.2017.mp4
Формат : MPEG-4
Профиль формата : Base Media
Идентификатор кодека : isom (isom/iso2/avc1/mp41)
Размер файла : 1,02 Гбайт
Продолжительность : 28 м. 49 с.
Общий поток : 5090 Кбит/сек
Программа кодирования : Lavf57.25.100
Видео
Идентификатор : 1
Формат : AVC
Формат/Информация : Advanced Video Codec
Профиль формата : Baseline@L5
Параметр CABAC формата : Нет
Параметр ReFrames формата : 1 кадр
Параметр GOP формата : M=1, N=12
Идентификатор кодека : avc1
Идентификатор кодека/Информация : Advanced Video Coding
Продолжительность : 28 м. 49 с.
Битрейт : 4958 Кбит/сек
Ширина : 2048 пикселей
Высота : 1152 пикселя
Соотношение сторон : 16:9
Режим частоты кадров : Постоянный
Частота кадров : 24,000 кадра/сек
Цветовое пространство : YUV
Субдискретизация насыщенности : 4:2:0
Битовая глубина : 8 бит
Тип развёртки : Прогрессивная
Бит/(Пиксели*Кадры) : 0.088
Размер потока : 1022 Мбайт (97%)
Язык : English
Цветовой диапазон : Limited
Аудио
Идентификатор : 2
Формат : AAC
Формат/Информация : Advanced Audio Codec
Профиль формата : LC
Идентификатор кодека : 40
Продолжительность : 28 м. 49 с.
Duration_LastFrame : -12 мс.
Вид битрейта : Постоянный
Битрейт : 128 Кбит/сек
Каналы : 2 канала
Расположение каналов : Front: L R
Частота : 44,1 КГц
Частота кадров : 43,066 кадра/сек (1024 spf)
Метод сжатия : С потерями
Размер потока : 26,4 Мбайт (3%)
Язык : English
Default : Да
Alternate group : 1

Скриншот c названием фильма

Скриншоты

[cybertorrent.ru].t208.torrent 
Торрент: Зарегистрирован [ 2018-02-15 15:34 ] · B3673C06F090BD65312A5257156C070805F5A8B9

Скачать .torrent

Скачать

11 KB

Статус: проверено
Скачан: 0 раз
Размер: 1,02 GB
Профиль [ЛС]
Показать сообщения:    

Текущее время: 23-Май 07:25

Часовой пояс: UTC ± 0



Вы не можете начинать темы
Вы не можете отвечать на сообщения
Вы не можете редактировать свои сообщения
Вы не можете удалять свои сообщения
Вы не можете голосовать в опросах
Вы не можете прикреплять файлы к сообщениям
Вы можете скачивать файлы