Статистика раздачи
Размер:  450 MB   |    Зарегистрирован:  3 месяца 11 дней   |    Скачан:  0 раз

Полного источника не было: Никогда

 
   
 
 

lopster ®

Пол:
Не указан
Стаж:
3 месяца 11 дней
Сообщений:
612

Майор Гром- Жанр: Короткометражный, Приключения, Фантастика, Боевик
Год выпуска: 2016
Продолжительность: 00:28:49
Режиссёр: Владимир Беседин
В ролях: Александр Горбатов, Иван Фоминов, Антон Кузнецов, Данила Якушев, Ойсель Море Деспайгне, Мария Ульянова, Алина Бунк, Анатолий Кощеев, Евгения Щербакова
Описание: Игорь Гром — опытный следователь из Санкт-Петербурга, известный своим пробивным характером и непримиримой позицией по отношению к преступникам всех мастей. Неимоверная сила, аналитический склад ума и неподкупность — всё это делает майора Грома идеальным полицейским. Работая не покладая рук, он всегда доводит начатое до конца и никогда не пасует перед трудностями, стоящими на пути.
Сэмпл: http://multi-up.com/1141771
Качество видео: WEBRip
Формат видео: AVI
Видео: 720x272 (2.65:1), 25 fps, XviD build 65, 2045 Kbps, 0.41 bit/pixel
Аудио: 44.1 kHz, MPEG Layer 3, 2 ch, 128.00 Kbps

MediaInfo

General
Complete name : Downloads\Major Grom (2016) WEB-DLRip.avi
Format : AVI
Format/Info : Audio Video Interleave
File size : 450 MiB
Duration : 28mn 49s
Overall bit rate : 2 182 Kbps
Movie name : Major Grom (2016) WEB-DLRip
Director : Maksmet
Writing application : VirtualDubModRus 1.5.10.2 (build 2542/release)
Original source form/Name : Movie
Comment : 20.02.2017
Video #0
ID : 0
Format : MPEG-4 Visual
Format profile : Advanced Simple@L5
Format settings, BVOP : 1
Format settings, QPel : No
Format settings, GMC : No warppoints
Format settings, Matrix : Custom
Codec ID : XVID
Codec ID/Hint : XviD
Duration : 28mn 49s
Bit rate : 2 045 Kbps
Width : 720 pixels
Height : 272 pixels
Display aspect ratio : 2.647
Frame rate : 25.000 fps
Color space : YUV
Chroma subsampling : 4:2:0
Bit depth : 8 bits
Scan type : Progressive
Compression mode : Lossy
Bits/(Pixel*Frame) : 0.418
Stream size : 422 MiB (94%)
Writing library : XviD 65
Audio #1
ID : 1
Format : MPEG Audio
Format version : Version 1
Format profile : Layer 3
Mode : Joint stereo
Codec ID : 55
Codec ID/Hint : MP3
Duration : 28mn 49s
Bit rate mode : Constant
Bit rate : 128 Kbps
Channel(s) : 2 channels
Sampling rate : 44.1 KHz
Compression mode : Lossy
Stream size : 26.4 MiB (6%)
Alignment : Split accross interleaves
Interleave, duration : 40 ms (1.00 video frame)
Interleave, preload duration : 500 ms
Writing library : LAME3.99r
Encoding settings : -m j -V 4 -q 2 -lowpass 17 -b 128

Скриншот c названием фильма

Скриншоты

[cybertorrent.ru].t210.torrent 
Торрент: Зарегистрирован [ 2018-02-15 15:34 ] · C79027ECA1ABF42D1A66FE79162FBE694C806C4C

Скачать .torrent

Скачать

18 KB

Статус: проверено
Скачан: 0 раз
Размер: 450 MB
Профиль [ЛС]
Показать сообщения:    

Текущее время: 26-Май 15:41

Часовой пояс: UTC ± 0



Вы не можете начинать темы
Вы не можете отвечать на сообщения
Вы не можете редактировать свои сообщения
Вы не можете удалять свои сообщения
Вы не можете голосовать в опросах
Вы не можете прикреплять файлы к сообщениям
Вы можете скачивать файлы