Статистика раздачи
Размер:  546 MB   |    Зарегистрирован:  13 дней   |    Скачан:  0 раз
DL-List: Нет

Полного источника не было: Никогда

 
     
 
 

MAGNAT ®

Пол:
Мужской
Стаж:
1 год 3 месяца
Сообщений:
8784

Прощание (Эдуард Лимонов)
Дата/Год выпуска: 2020
Страна: Россия, ТВЦ
Жанр: Документальный, биография, литература, политика
Продолжительность: 00:41:34
Перевод: Не требуется
Русские субтитры: нет
Описание: Он стеснялся своей тяжёлой болезни и слабости и в последние два года резко сократил контакты с внешним миром. И хоронить его завещал без лишних глаз и слов. Но вся жизнь Эдуарда Лимонова прошла совсем по-другому. Всё было напоказ – "ярко, подло и гадко". Писатель, политик, бунтарь, любитель женщин… Он думал, что "делает революцию". А она не случилась…
качество: IPTVRip
формат: AVI
Видео: 720x400 (1.80:1), 25 fps, XviD build 73 ~1699 kbps avg, 0.24 bit/pixel
Аудио: 48 kHz, MPEG Layer 3, 2 ch, ~128.00 kbps avg

MediaInfo

Complete name : D:\gotov\Прощание (Эдуард Лимонов).2020.IPTVRip.avi
Format : AVI
Format/Info : Audio Video Interleave
File size : 546 MiB
Duration : 41 min 34 s
Overall bit rate : 1 837 kb/s
Writing application : VirtualDubMod 1.5.10.3 | www.virtualdub-fr.org || (build 2550/release)
Writing library : VirtualDubMod build 2550/release
Video
ID : 0
Format : MPEG-4 Visual
Format profile : Advanced Simple@L5
Format settings : BVOP2
Format settings, BVOP : 2
Format settings, QPel : No
Format settings, GMC : No warppoints
Format settings, Matrix : Default (H.263)
Codec ID : XVID
Codec ID/Hint : XviD
Duration : 41 min 34 s
Bit rate : 1 700 kb/s
Width : 720 pixels
Height : 400 pixels
Display aspect ratio : 16:9
Frame rate : 25.000 FPS
Color space : YUV
Chroma subsampling : 4:2:0
Bit depth : 8 bits
Scan type : Progressive
Compression mode : Lossy
Bits/(Pixel*Frame) : 0.236
Stream size : 505 MiB (93%)
Writing library : XviD 73
Audio
ID : 1
Format : MPEG Audio
Format version : Version 1
Format profile : Layer 3
Codec ID : 55
Codec ID/Hint : MP3
Duration : 41 min 34 s
Bit rate mode : Constant
Bit rate : 128 kb/s
Channel(s) : 2 channels
Sampling rate : 48.0 kHz
Frame rate : 41.667 FPS (1152 SPF)
Compression mode : Lossy
Stream size : 38.1 MiB (7%)
Alignment : Aligned on interleaves
Interleave, duration : 40 ms (1.00 video frame)
Interleave, preload duration : 504 ms
Writing library : LAME3.99r
Encoding settings : -m s -V 4 -q 2 -lowpass 17 -b 128

Скриншоты

[cybertorrent.ru].t21111.torrent 
Торрент: Зарегистрирован [ 2020-06-25 18:18 ] · 09485200849691ECEF883781CD6D4398B51CB556

Скачать .torrent

Скачать

6 KB

Статус: проверено
Скачан: 0 раз
Размер: 546 MB  ·  Тип торрента
terms.php
Профиль [ЛС]
Показать сообщения:    

Текущее время: 09-Июл 00:37

Часовой пояс: UTC ± 0



Вы не можете начинать темы
Вы не можете отвечать на сообщения
Вы не можете редактировать свои сообщения
Вы не можете удалять свои сообщения
Вы не можете голосовать в опросах
Вы не можете прикреплять файлы к сообщениям
Вы можете скачивать файлы