Статистика раздачи
Размер:  690 MB   |    Зарегистрирован:  13 дней   |    Скачан:  0 раз
DL-List: Нет

Полного источника не было: Никогда

 
     
 
 

MAGNAT ®

Пол:
Мужской
Стаж:
1 год 3 месяца
Сообщений:
8784

Моя правда (Татьяна Судец. Принимаю судьбу)
Дата/Год выпуска: 2020
Страна: Россия, 5 канал
Жанр: Документальный, биография, искусство
Продолжительность: 00:48:00
Перевод: Не требуется
Русские субтитры: нет
Описание: Диктор Центрального телевидения Татьяна Судец на протяжении нескольких десятилетий была одной из самых любимых телеведущих. Она сообщала главные новости страны и мира в программе «Время», вела «Голубые огоньки» и «Песню года». Но больше всего ее обожали дети — Судец почти четверть века вела «Спокойной ночи, малыши!» вместе с Хрюшей и Степашей. Юные зрители обожали добрую и веселую тётю Таню. Но жизнь по другую сторону голубого экрана у Судец была полной боли и разочарований. Но самой страшной трагедий для телеведущей стала гибель сына. Андрею было всего 24 года. Каким образом она смогла пережить это горе? Правда ли, что отыскать тело сына ей помогли экстрасенсы? Как ее спасло увлечение азартными играми? Сколько автомобилей выиграла телеведущая в казино? Зачем Судец закончила школу гипноза? Почему она не может простить первого мужа своей дочери? И из-за чего легендарная телеведущая лишилась любимой профессии? Откровенное интервью Татьяны Судец и ее близких в программе «Моя правда. Татьяна Судец. Принимаю судьбу».
качество: IPTVRip
формат: AVI
Видео: 720x400 (1.80:1), 25 fps, XviD build 73 ~1871 kbps avg, 0.26 bit/pixel
Аудио: 48 kHz, MPEG Layer 3, 2 ch, ~128.00 kbps avg

MediaInfo

Complete name : D:\gotov\Моя правда.Татьяна Судец.2020.IPTVRip.avi
Format : AVI
Format/Info : Audio Video Interleave
File size : 690 MiB
Duration : 48 min 0 s
Overall bit rate : 2 009 kb/s
Writing application : VirtualDubMod 1.5.10.3 | www.virtualdub-fr.org || (build 2550/release)
Writing library : VirtualDubMod build 2550/release
Video
ID : 0
Format : MPEG-4 Visual
Format profile : Advanced Simple@L5
Format settings : BVOP2
Format settings, BVOP : 2
Format settings, QPel : No
Format settings, GMC : No warppoints
Format settings, Matrix : Default (H.263)
Codec ID : XVID
Codec ID/Hint : XviD
Duration : 48 min 0 s
Bit rate : 1 871 kb/s
Width : 720 pixels
Height : 400 pixels
Display aspect ratio : 16:9
Frame rate : 25.000 FPS
Color space : YUV
Chroma subsampling : 4:2:0
Bit depth : 8 bits
Scan type : Progressive
Compression mode : Lossy
Bits/(Pixel*Frame) : 0.260
Stream size : 642 MiB (93%)
Writing library : XviD 73
Audio
ID : 1
Format : MPEG Audio
Format version : Version 1
Format profile : Layer 3
Codec ID : 55
Codec ID/Hint : MP3
Duration : 48 min 0 s
Bit rate mode : Constant
Bit rate : 128 kb/s
Channel(s) : 2 channels
Sampling rate : 48.0 kHz
Frame rate : 41.667 FPS (1152 SPF)
Compression mode : Lossy
Stream size : 43.9 MiB (6%)
Alignment : Aligned on interleaves
Interleave, duration : 40 ms (1.00 video frame)
Interleave, preload duration : 504 ms
Writing library : LAME3.99r
Encoding settings : -m s -V 4 -q 2 -lowpass 17 -b 128

Скриншоты

[cybertorrent.ru].t21112.torrent 
Торрент: Зарегистрирован [ 2020-06-25 18:18 ] · 883645B38007B55866E0CA9619125D0CAE9E445F

Скачать .torrent

Скачать

7 KB

Статус: проверено
Скачан: 0 раз
Размер: 690 MB  ·  Тип торрента
terms.php
Профиль [ЛС]
Показать сообщения:    

Текущее время: 09-Июл 02:25

Часовой пояс: UTC ± 0



Вы не можете начинать темы
Вы не можете отвечать на сообщения
Вы не можете редактировать свои сообщения
Вы не можете удалять свои сообщения
Вы не можете голосовать в опросах
Вы не можете прикреплять файлы к сообщениям
Вы можете скачивать файлы