Статистика раздачи
Размер:  1,13 GB   |    Зарегистрирован:  13 дней   |    Скачан:  0 раз
DL-List: Нет

Полного источника не было: Никогда

 
     
 
 

MAGNAT ®

Пол:
Мужской
Стаж:
1 год 3 месяца
Сообщений:
8784

Мастера искусств (Олег Янковский)
Дата/Год выпуска: 1985
Страна: СССР, ЦТ
Жанр: Документальный, кинематограф, театр, биография
Продолжительность: 01:07:25
Перевод: Не требуется
Русские субтитры: нет
Режиссер: Александр Васинский
Описание: Олег Иванович Янковский, народный артист СССР, был не только одним из самых талантливых актеров своего времени – он был одним из самых любимых народом. Причем народ в своем отношении к Олегу Янковскому был на редкость един – будь то, к примеру, режиссер-интеллектуал Андрей Тарковский, завсегдатай театра "Ленком", где играл Янковский, или сельская учительница, знающая актера только по фильмам. Янковский редко давал интервью, еще меньше рассказывал о себе. Программа, которую вы увидите, в какой-то степени приоткроет эту завесу. На встрече со зрителями Янковский отвечал на разные и порой неожиданные вопросы. В программу включены фрагменты фильмов с участием Олега Янковского.
качество: IPTVRip
формат: AVI
Видео: 640x432 (1.48:1), 25 fps, XviD build 73 ~2253 kbps avg, 0.33 bit/pixel
Аудио: 48 kHz, MPEG Layer 3, 2 ch, ~128.00 kbps avg

MediaInfo

Complete name : D:\gotov\Мастера искусств.Олег Янковский.1985.IPTVRip.avi
Format : AVI
Format/Info : Audio Video Interleave
File size : 1.13 GiB
Duration : 1 h 7 min
Overall bit rate : 2 391 kb/s
Writing application : VirtualDubMod 1.5.10.3 | www.virtualdub-fr.org || (build 2550/release)
Writing library : VirtualDubMod build 2550/release
Video
ID : 0
Format : MPEG-4 Visual
Format profile : Advanced Simple@L5
Format settings : BVOP2
Format settings, BVOP : 2
Format settings, QPel : No
Format settings, GMC : No warppoints
Format settings, Matrix : Default (MPEG)
Codec ID : XVID
Codec ID/Hint : XviD
Duration : 1 h 7 min
Bit rate : 2 253 kb/s
Width : 640 pixels
Height : 432 pixels
Display aspect ratio : 3:2
Frame rate : 25.000 FPS
Color space : YUV
Chroma subsampling : 4:2:0
Bit depth : 8 bits
Scan type : Progressive
Compression mode : Lossy
Bits/(Pixel*Frame) : 0.326
Stream size : 1.06 GiB (94%)
Writing library : XviD 73
Audio
ID : 1
Format : MPEG Audio
Format version : Version 1
Format profile : Layer 3
Codec ID : 55
Codec ID/Hint : MP3
Duration : 1 h 7 min
Bit rate mode : Constant
Bit rate : 128 kb/s
Channel(s) : 2 channels
Sampling rate : 48.0 kHz
Frame rate : 41.667 FPS (1152 SPF)
Compression mode : Lossy
Stream size : 61.7 MiB (5%)
Alignment : Aligned on interleaves
Interleave, duration : 40 ms (1.00 video frame)
Interleave, preload duration : 504 ms
Writing library : LAME3.99r
Encoding settings : -m s -V 4 -q 2 -lowpass 17 -b 128

Скриншоты

[cybertorrent.ru].t21113.torrent 
Торрент: Зарегистрирован [ 2020-06-25 18:19 ] · 2BE9927FA145938B2E54D66B9D4D4182370F25FB

Скачать .torrent

Скачать

12 KB

Статус: проверено
Скачан: 0 раз
Размер: 1,13 GB  ·  Тип торрента
terms.php
Профиль [ЛС]
Показать сообщения:    

Текущее время: 09-Июл 01:50

Часовой пояс: UTC ± 0



Вы не можете начинать темы
Вы не можете отвечать на сообщения
Вы не можете редактировать свои сообщения
Вы не можете удалять свои сообщения
Вы не можете голосовать в опросах
Вы не можете прикреплять файлы к сообщениям
Вы можете скачивать файлы