Статистика раздачи
Размер:  1,46 GB   |    Зарегистрирован:  13 дней   |    Скачан:  0 раз
DL-List: Нет

Полного источника не было: Никогда

 
     
 
 

MAGNAT ®

Пол:
Мужской
Стаж:
1 год 3 месяца
Сообщений:
8784

С любовью, Антоша / Love, Antosha
Страна: США
Студия: Lurker
Жанр: документальный, биография
Год выпуска: 2019
Продолжительность: 01:32:47
Перевод: Профессиональный (многоголосый закадровый) (Студия "Мельница" по заказу компании «A-One Films») [iTunes]
Субтитры: Русские (iTunes), английские
Оригинальная аудиодорожка: Английский
Режиссёр: Гаррет Прайс / Garret Price
В ролях: Антон Ельчин, Джей Джей Абрамс, Дженнифер Лоуренс, Николас Кейдж, Джон Чо, София Бутелла, Кристен Стюарт, Уиллем Дефо, Дрейк Доремус, Джоди Фостер, Саймон Пегг, Джон Войт, Крис Пайн, Закари Куинто, Фрэнк Ланджелла, Джо Данте, Райан Дин, Бен Фостер, Крэйг Гиллеспи, Брайс Даллас Ховард, Мартин Ландау, Марк Палански
Описание: Документальный фильм об актёре Антоне Ельчине, который трагически погиб 19.06.2016 под колёсами собственного Джипа в возрасте 27 лет. Построен как образцовая история взросления - от эмиграции родителей из СССР в США до трагической смерти актёра. Через его письма, дневники и домашние видео нас проводят через все этапы жизни Антона: первые пробы в искусстве, первые заметные роли, первые отношения с девушками и даже первое алкогольное опьянение (замечательный отрывок, где подросток пробует различные виды алкоголя ради подготовки к съёмкам «Альфа дога»).
Качество видео: WEBDLRip
Формат видео: AVI
Видео: XviD, 720x400 (16:9), 23.976 fps, 1473 kbps, 0.213 bit/pixel
Аудио 1: Русский AC3, 48000 Гц, 6ch, 384 kbps
Аудио 2: Английский AС3, 48000 Гц, 6ch, 384 kbps
Формат субтитров: softsub (SRT) - внешние файлы

MediaInfo

Общее
Полное имя : D:\Love.Antosha.2019.WEBDLRip-ylnian\Love.Antosha.2019.WEBDLRip-ylnian.avi
Формат : AVI
Формат/Информация : Audio Video Interleave
Размер файла : 1,46 Гбайт
Продолжительность : 1 ч. 32 м.
Общий поток : 2 255 Кбит/сек
Программа кодирования : VirtualDubMod 1.5.10.3 | www.virtualdub-fr.org || (build 2550/release)
Библиотека кодирования : VirtualDubMod build 2550/release
Видео
Идентификатор : 0
Формат : MPEG-4 Visual
Профиль формата : Advanced Simple@L5
Настройки формата : BVOP1
Параметр BVOP формата : 1
Параметр QPel формата : Нет
Параметр GMC формата : Без точки перехода
Параметр матрицы формата : Default (MPEG)
Идентификатор кодека : XVID
Идентификатор кодека/Подсказка : XviD
Продолжительность : 1 ч. 32 м.
Битрейт : 1 473 Кбит/сек
Ширина : 720 пикселей
Высота : 400 пикселей
Соотношение сторон : 16:9
Частота кадров : 23,976 (24000/1001) кадра/сек
Цветовое пространство : YUV
Субдискретизация насыщенности : 4:2:0
Битовая глубина : 8 бит
Тип развёртки : Прогрессивная
Метод сжатия : С потерями
Бит/(Пиксели*Кадры) : 0.213
Размер потока : 977 Мбайт (65%)
Библиотека кодирования : XviD 67
Аудио #1
Идентификатор : 1
Формат : AC-3
Формат/Информация : Audio Coding 3
Коммерческое название : Dolby Digital
Идентификатор кодека : 2000
Продолжительность : 1 ч. 32 м.
Вид битрейта : Постоянный
Битрейт : 384 Кбит/сек
Каналы : 6 каналов
Channel layout : L R C LFE Ls Rs
Частота : 48,0 КГц
Частота кадров : 31,250 кадров/сек (1536 SPF)
Метод сжатия : С потерями
Размер потока : 255 Мбайт (17%)
Выравнивание : Разделение по промежуткам
Продолжительность промежутка : 42 мс. (1,00 видеокадр)
Время предзагрузки промежутка : 500 мс.
Заголовок : RUS
Service kind : Complete Main
Аудио #2
Идентификатор : 2
Формат : AC-3
Формат/Информация : Audio Coding 3
Коммерческое название : Dolby Digital
Идентификатор кодека : 2000
Продолжительность : 1 ч. 32 м.
Вид битрейта : Постоянный
Битрейт : 384 Кбит/сек
Каналы : 6 каналов
Channel layout : L R C LFE Ls Rs
Частота : 48,0 КГц
Частота кадров : 31,250 кадров/сек (1536 SPF)
Метод сжатия : С потерями
Размер потока : 255 Мбайт (17%)
Выравнивание : Разделение по промежуткам
Продолжительность промежутка : 42 мс. (1,00 видеокадр)
Время предзагрузки промежутка : 500 мс.
Заголовок : ENG
Service kind : Complete Main
Общее
Полное имя : D:\Love.Antosha.2019.WEBDLRip-ylnian\Love.Antosha.2019.WEBDLRip-ylnian.eng.srt
Формат : SubRip
Размер файла : 133 Кбайт
Текст
Формат : SubRip
Метод сжатия : Без потерь
Общее
Полное имя : D:\Love.Antosha.2019.WEBDLRip-ylnian\Love.Antosha.2019.WEBDLRip-ylnian.rus.srt
Формат : SubRip
Размер файла : 166 Кбайт
Текст
Формат : SubRip
Метод сжатия : Без потерь
[cybertorrent.ru].t21114.torrent 
Торрент: Зарегистрирован [ 2020-06-25 18:19 ] · 7E4CC405B54AF7E4004B492894C4440A159213B9

Скачать .torrent

Скачать

15 KB

Статус: проверено
Скачан: 0 раз
Размер: 1,46 GB  ·  Тип торрента
terms.php
Профиль [ЛС]
Показать сообщения:    

Текущее время: 09-Июл 01:15

Часовой пояс: UTC ± 0



Вы не можете начинать темы
Вы не можете отвечать на сообщения
Вы не можете редактировать свои сообщения
Вы не можете удалять свои сообщения
Вы не можете голосовать в опросах
Вы не можете прикреплять файлы к сообщениям
Вы можете скачивать файлы