Статистика раздачи
Размер:  531 MB   |    Зарегистрирован:  13 дней   |    Скачан:  0 раз
DL-List: Нет

Полного источника не было: Никогда

 
     
 
 

MAGNAT ®

Пол:
Мужской
Стаж:
1 год 3 месяца
Сообщений:
8784

Татьяна Пельтцер. Бабушка-скандал
Дата/Год выпуска: 2020
Страна: Россия, ТВЦ
Жанр: Документальный, биография, искусство
Продолжительность: 00:40:24
Перевод: Не требуется
Русские субтитры: нет
Описание: Татьяну Пельтцер обожала вся страна. С экрана зрителям улыбалась мудрая и добрая старушка. Но за кулисами слагали легенды о противном характере и остром языке актрисы. Она бросалась с кулаками на костюмерш, проклинала своих партнёров по игре в покер, унижала самого Марка Захарова и терпеть не могла конкуренции. "Сумасшедшая старуха", – шептали за её спиной. И в конце жизни Пельтцер действительно оказалась в психиатрической больнице...
качество: IPTVRip
формат: AVI
Видео: 720x400 (1.80:1), 25 fps, XviD build 73 ~1698 kbps avg, 0.24 bit/pixel
Аудио: 48 kHz, MPEG Layer 3, 2 ch, ~128.00 kbps avg

MediaInfo

Complete name : D:\gotov\Татьяна Пельтцер.Бабушка-скандал.2020.IPTVRip.avi
Format : AVI
Format/Info : Audio Video Interleave
File size : 531 MiB
Duration : 40 min 24 s
Overall bit rate : 1 836 kb/s
Writing application : VirtualDubMod 1.5.10.3 | www.virtualdub-fr.org || (build 2550/release)
Writing library : VirtualDubMod build 2550/release
Video
ID : 0
Format : MPEG-4 Visual
Format profile : Advanced Simple@L5
Format settings : BVOP2
Format settings, BVOP : 2
Format settings, QPel : No
Format settings, GMC : No warppoints
Format settings, Matrix : Default (H.263)
Codec ID : XVID
Codec ID/Hint : XviD
Duration : 40 min 24 s
Bit rate : 1 699 kb/s
Width : 720 pixels
Height : 400 pixels
Display aspect ratio : 16:9
Frame rate : 25.000 FPS
Color space : YUV
Chroma subsampling : 4:2:0
Bit depth : 8 bits
Scan type : Progressive
Compression mode : Lossy
Bits/(Pixel*Frame) : 0.236
Stream size : 491 MiB (92%)
Writing library : XviD 73
Audio
ID : 1
Format : MPEG Audio
Format version : Version 1
Format profile : Layer 3
Codec ID : 55
Codec ID/Hint : MP3
Duration : 40 min 24 s
Bit rate mode : Constant
Bit rate : 128 kb/s
Channel(s) : 2 channels
Sampling rate : 48.0 kHz
Frame rate : 41.667 FPS (1152 SPF)
Compression mode : Lossy
Stream size : 37.0 MiB (7%)
Alignment : Aligned on interleaves
Interleave, duration : 40 ms (1.00 video frame)
Interleave, preload duration : 504 ms
Writing library : LAME3.99r
Encoding settings : -m s -V 4 -q 2 -lowpass 17 -b 128

Скриншоты

[cybertorrent.ru].t21116.torrent 
Торрент: Зарегистрирован [ 2020-06-25 18:21 ] · 72BCB2373675DBC1901F73A9D1E637543AC5AF48

Скачать .torrent

Скачать

6 KB

Статус: проверено
Скачан: 0 раз
Размер: 531 MB  ·  Тип торрента
terms.php
Профиль [ЛС]
Показать сообщения:    

Текущее время: 09-Июл 02:32

Часовой пояс: UTC ± 0



Вы не можете начинать темы
Вы не можете отвечать на сообщения
Вы не можете редактировать свои сообщения
Вы не можете удалять свои сообщения
Вы не можете голосовать в опросах
Вы не можете прикреплять файлы к сообщениям
Вы можете скачивать файлы