Статистика раздачи
Размер:  571 MB   |    Зарегистрирован:  13 дней   |    Скачан:  0 раз
DL-List: Нет

Полного источника не было: Никогда

 
     
 
 

MAGNAT ®

Пол:
Мужской
Стаж:
1 год 3 месяца
Сообщений:
8784

Людмила Хитяева. Командую парадом я!
Дата/Год выпуска: 2015
Страна: Россия, ООО "Сайенслист"
Жанр: Документальный, биография, кинематограф
Продолжительность: 00:43:24
Перевод: Не требуется
Русские субтитры: нет
Режиссер: Лариса Кичаева
Описание: На советском экране она совершила чувственную революцию, первой сказав о том, о чём многие думали, но боялись говорить вслух – наша женщина тоже может быть объектом желания. Красивая, манкая, раскрепощённая, Хитяева заставляла одним взглядом замирать зрительные залы, воплощая на экране новый тип героини – русскую Кармен. Казалось, что её карьера будет долгой, а личная жизнь счастливой. Но упрямый характер и привычка решать всё по-своему не обещали актрисе лёгкого пути.
качество: IPTVRip
формат: AVI
Видео: 720x400 (1.80:1), 25 fps, XviD build 73 ~1699 kbps avg, 0.24 bit/pixel
Аудио: 48 kHz, MPEG Layer 3, 2 ch, ~128.00 kbps avg

MediaInfo

Complete name : D:\gotov\Л.Хитяева.Командую парадом я.2015.IPTVRip.avi
Format : AVI
Format/Info : Audio Video Interleave
File size : 571 MiB
Duration : 43 min 24 s
Overall bit rate : 1 838 kb/s
Writing application : VirtualDubMod 1.5.10.3 | www.virtualdub-fr.org || (build 2550/release)
Writing library : VirtualDubMod build 2550/release
Video
ID : 0
Format : MPEG-4 Visual
Format profile : Advanced Simple@L5
Format settings : BVOP2
Format settings, BVOP : 2
Format settings, QPel : No
Format settings, GMC : No warppoints
Format settings, Matrix : Default (H.263)
Codec ID : XVID
Codec ID/Hint : XviD
Duration : 43 min 24 s
Bit rate : 1 700 kb/s
Width : 720 pixels
Height : 400 pixels
Display aspect ratio : 16:9
Frame rate : 25.000 FPS
Color space : YUV
Chroma subsampling : 4:2:0
Bit depth : 8 bits
Scan type : Progressive
Compression mode : Lossy
Bits/(Pixel*Frame) : 0.236
Stream size : 528 MiB (93%)
Writing library : XviD 73
Audio
ID : 1
Format : MPEG Audio
Format version : Version 1
Format profile : Layer 3
Codec ID : 55
Codec ID/Hint : MP3
Duration : 43 min 24 s
Bit rate mode : Constant
Bit rate : 128 kb/s
Channel(s) : 2 channels
Sampling rate : 48.0 kHz
Frame rate : 41.667 FPS (1152 SPF)
Compression mode : Lossy
Stream size : 39.7 MiB (7%)
Alignment : Aligned on interleaves
Interleave, duration : 40 ms (1.00 video frame)
Interleave, preload duration : 504 ms
Writing library : LAME3.99r
Encoding settings : -m s -V 4 -q 2 -lowpass 17 -b 128

Скриншоты

[cybertorrent.ru].t21117.torrent 
Торрент: Зарегистрирован [ 2020-06-25 18:22 ] · 1D01CF1FDD81C564CCB05C1CA307F7B37D1FFFA8

Скачать .torrent

Скачать

6 KB

Статус: проверено
Скачан: 0 раз
Размер: 571 MB  ·  Тип торрента
terms.php
Профиль [ЛС]
Показать сообщения:    

Текущее время: 09-Июл 01:57

Часовой пояс: UTC ± 0



Вы не можете начинать темы
Вы не можете отвечать на сообщения
Вы не можете редактировать свои сообщения
Вы не можете удалять свои сообщения
Вы не можете голосовать в опросах
Вы не можете прикреплять файлы к сообщениям
Вы можете скачивать файлы