Статистика раздачи
Размер:  513 MB   |    Зарегистрирован:  13 дней   |    Скачан:  0 раз
DL-List: Нет

Полного источника не было: Никогда

 
     
 
 

MAGNAT ®

Пол:
Мужской
Стаж:
1 год 3 месяца
Сообщений:
8784

Актерские судьбы (Восток - дело тонкое)
Дата/Год выпуска: 2020
Страна: Россия, ООО "Эйс Коммуникейшнс"
Жанр: Документальный, кинематограф, биография
Продолжительность: 00:39:02
Перевод: Не требуется
Русские субтитры: нет
Режиссер: Лариса Кичаева
Описание: Наталья Аринбасарова, Талгат Нигматулин, Матлюба Алимова, Рустам Сагдуллаев… Большой советский экран редко баловал этих актёров главными ролями. Азиатская внешность накладывала свои рамки. В Азии они тоже иногда становились чужими среди своих, и их попытки найти себя порой заканчивались трагически. Но однажды, дав им шанс прославиться, судьба навсегда сделала этих актёров любимцами миллионов зрителей.
качество: IPTVRip
формат: AVI
Видео: 720x400 (1.80:1), 25 fps, XviD build 73 ~1699 kbps avg, 0.24 bit/pixel
Аудио: 48 kHz, MPEG Layer 3, 2 ch, ~128.00 kbps avg

MediaInfo

Complete name : D:\gotov\Актерские судьбы.Восток дело тонкое.2020.IPTVRip.avi
Format : AVI
Format/Info : Audio Video Interleave
File size : 513 MiB
Duration : 39 min 2 s
Overall bit rate : 1 837 kb/s
Writing application : VirtualDubMod 1.5.10.3 | www.virtualdub-fr.org || (build 2550/release)
Writing library : VirtualDubMod build 2550/release
Video
ID : 0
Format : MPEG-4 Visual
Format profile : Advanced Simple@L5
Format settings : BVOP2
Format settings, BVOP : 2
Format settings, QPel : No
Format settings, GMC : No warppoints
Format settings, Matrix : Default (H.263)
Codec ID : XVID
Codec ID/Hint : XviD
Duration : 39 min 2 s
Bit rate : 1 700 kb/s
Width : 720 pixels
Height : 400 pixels
Display aspect ratio : 16:9
Frame rate : 25.000 FPS
Color space : YUV
Chroma subsampling : 4:2:0
Bit depth : 8 bits
Scan type : Progressive
Compression mode : Lossy
Bits/(Pixel*Frame) : 0.236
Stream size : 475 MiB (93%)
Writing library : XviD 73
Audio
ID : 1
Format : MPEG Audio
Format version : Version 1
Format profile : Layer 3
Codec ID : 55
Codec ID/Hint : MP3
Duration : 39 min 2 s
Bit rate mode : Constant
Bit rate : 128 kb/s
Channel(s) : 2 channels
Sampling rate : 48.0 kHz
Frame rate : 41.667 FPS (1152 SPF)
Compression mode : Lossy
Stream size : 35.7 MiB (7%)
Alignment : Aligned on interleaves
Interleave, duration : 40 ms (1.00 video frame)
Interleave, preload duration : 504 ms
Writing library : LAME3.99r
Encoding settings : -m s -V 4 -q 2 -lowpass 17 -b 128

Скриншоты

[cybertorrent.ru].t21118.torrent 
Торрент: Зарегистрирован [ 2020-06-25 18:23 ] · 2A162808ECA554D4AC70B2B2596551F352FEF81D

Скачать .torrent

Скачать

6 KB

Статус: проверено
Скачан: 0 раз
Размер: 513 MB  ·  Тип торрента
terms.php
Профиль [ЛС]
Показать сообщения:    

Текущее время: 09-Июл 01:21

Часовой пояс: UTC ± 0



Вы не можете начинать темы
Вы не можете отвечать на сообщения
Вы не можете редактировать свои сообщения
Вы не можете удалять свои сообщения
Вы не можете голосовать в опросах
Вы не можете прикреплять файлы к сообщениям
Вы можете скачивать файлы