Статистика раздачи
Размер:  1,47 GB   |    Зарегистрирован:  13 дней   |    Скачан:  0 раз
DL-List: Нет

Полного источника не было: Никогда

 
     
 
 

MAGNAT ®

Пол:
Мужской
Стаж:
1 год 3 месяца
Сообщений:
8784

Артур Миллер: Писатель
Arthur Miller: Writer- Страна: США
Жанр: документальный, биографический
Год выпуска: 2017
Продолжительность: 01:36:38Перевод: Профессиональный (двухголосый закадровый) Студия SDI Media по заказу Amedia TV
Субтитры: нет
Режиссер: Ребекка Миллер / Rebecca Miller
Телеканал: Amedia 1
Описание: Интимный портрет драматурга, в жизни которого был не только брак с Мэрилин Монро. Еще в детстве Ребекка Миллер заметила, что ее отец, знаменитый драматург Артур Миллер, ведет себя совершенно по-разному на публике и дома. Повзрослев и став режиссером, Ребекка начала снимать многочасовые интервью с отцом, из которых спустя почти полтора десятилетия после его смерти смонтировала фильм, открывающий автора "Смерти коммивояжера" с неизвестной стороны. Отвечая на вопросы дочери, писатель откровенно рассказывает и о своем недолговечном браке с Мэрилин Монро, и о звездном статусе в послевоенной Америке, когда "не было ничего важнее хорошей пьесы", и о "маккартизме" – голливудской охоте на коммунистов и сочувствующих, во время которой его близкий друг, режиссер Элиа Казан, ради карьеры дал показания, сломавшие несколько жизней.
Качество видео: SATRip-AVC
Формат видео: MKV
Видео: AVC (H.264), 720x400 (16:9), 25 fps, ~1981 kbps avg, 0.275 bit/pixel
Аудио: MPEG Audio 2, 2 ch, 48 kHz, ~192.00 kbps avg

MediaInfo

General
Unique ID : 309734416038209109484533003613914487194 (0xE904ADBD062821683A92FD8DA38F599A)
Complete name : [apreder]Arthur_Miller_Writer(2017)SATRip.mkv
Format : Matroska
Format version : Version 2
File size : 1.47 GiB
Duration : 1 h 36 min
Overall bit rate : 2 176 kb/s
Movie name : Arthur Miller: Writer
Released date : 2017-00-00
Encoded date : UTC 2020-03-31 11:18:46
Writing application : mkvmerge v44.0.0 ('Domino') 64-bit
Writing library : libebml v1.3.10 + libmatroska v1.5.2
Cover : Yes
Attachments : cover.jpg / small_cover.jpg
DIRECTOR : Rebecca Miller
GENRE : Documentary
IMDB : tt7302488
KEYWORDS : rutracker.org
LAW_RATING : 12+
Video
ID : 1
Format : AVC
Format/Info : Advanced Video Codec
Format profile : High@L4.1
Format settings : CABAC / 9 Ref Frames
Format settings, CABAC : Yes
Format settings, Reference frames : 9 frames
Codec ID : V_MPEG4/ISO/AVC
Duration : 1 h 36 min
Bit rate : 1 981 kb/s
Width : 720 pixels
Height : 400 pixels
Display aspect ratio : 16:9
Frame rate mode : Constant
Frame rate : 25.000 FPS
Color space : YUV
Chroma subsampling : 4:2:0
Bit depth : 8 bits
Scan type : Progressive
Bits/(Pixel*Frame) : 0.275
Stream size : 1.31 GiB (89%)
Writing library : x264 core 159 r2991 1771b55
Encoding settings : cabac=1 / ref=9 / deblock=1:-1:-1 / analyse=0x3:0x133 / me=umh / subme=10 / psy=1 / psy_rd=1.00:0.15 / mixed_ref=1 / me_range=24 / chroma_me=1 / trellis=2 / 8x8dct=1 / cqm=0 / deadzone=21,11 / fast_pskip=1 / chroma_qp_offset=-3 / threads=12 / lookahead_threads=2 / sliced_threads=0 / nr=0 / decimate=1 / interlaced=0 / bluray_compat=0 / constrained_intra=0 / bframes=8 / b_pyramid=2 / b_adapt=2 / b_bias=0 / direct=3 / weightb=1 / open_gop=0 / weightp=2 / keyint=250 / keyint_min=25 / scenecut=40 / intra_refresh=0 / rc_lookahead=60 / rc=2pass / mbtree=1 / bitrate=1981 / ratetol=1.0 / qcomp=0.60 / qpmin=0 / qpmax=69 / qpstep=4 / cplxblur=20.0 / qblur=0.5 / vbv_maxrate=62500 / vbv_bufsize=78125 / nal_hrd=none / filler=0 / ip_ratio=1.40 / aq=1:1.00
Default : Yes
Forced : No
Audio
ID : 2
Format : MPEG Audio
Format version : Version 1
Format profile : Layer 2
Format settings : Joint stereo / Intensity Stereo + MS Stereo
Codec ID : A_MPEG/L2
Codec ID/Hint : MP2
Duration : 1 h 36 min
Bit rate mode : Constant
Bit rate : 192 kb/s
Channel(s) : 2 channels
Sampling rate : 48.0 kHz
Compression mode : Lossy
Stream size : 133 MiB (9%)
Language : Russian
Default : Yes
Forced : No

Скриншоты


Резервные скриншоты


-
[cybertorrent.ru].t21119.torrent 
Торрент: Зарегистрирован [ 2020-06-25 18:23 ] · 4489E31A555108CE639AA22A2F8C62F9CDB6BEBE

Скачать .torrent

Скачать

15 KB

Статус: проверено
Скачан: 0 раз
Размер: 1,47 GB  ·  Тип торрента
terms.php
Профиль [ЛС]
Показать сообщения:    

Текущее время: 09-Июл 00:46

Часовой пояс: UTC ± 0



Вы не можете начинать темы
Вы не можете отвечать на сообщения
Вы не можете редактировать свои сообщения
Вы не можете удалять свои сообщения
Вы не можете голосовать в опросах
Вы не можете прикреплять файлы к сообщениям
Вы можете скачивать файлы