Статистика раздачи
Размер:  681 MB   |    Зарегистрирован:  13 дней   |    Скачан:  0 раз
DL-List: Нет

Полного источника не было: Никогда

 
     
 
 

MAGNAT ®

Пол:
Мужской
Стаж:
1 год 3 месяца
Сообщений:
8784

Линия жизни (Николай Караченцов)
Дата/Год выпуска: 2004
Страна: Россия, ГТРК "Культура"
Жанр: Ток-шоу, биография, искусство
Продолжительность: 00:51:49
Перевод: Не требуется
Русские субтитры: нет
Режиссер: Константин Владимиров
Описание: Николай Караченцов, народный артист России, ведущий актер театра "Ленком", знаменитый граф Резанов из спектакля "Юнона и Авось" рассказывает о своей линии жизни. Поскольку его судьба неразрывно связана с песнями и танцем, в программе много музыки, а также вместе с детьми из школы искусств г. Красноармейска артист исполнит стэп.
качество: IPTVRip
формат: AVI
Видео: 640x480 (1.33:1), 25 fps, XviD build 73 ~1699 kbps avg, 0.22 bit/pixel
Аудио: 48 kHz, MPEG Layer 3, 2 ch, ~128.00 kbps avg

MediaInfo

Полное имя : D:\gotov\Линия жизни.Н.Караченцов.2004.IPTVRip.avi
Формат : AVI
Формат/Информация : Audio Video Interleave
Размер файла : 681 Мбайт
Продолжительность : 51 м.
Общий поток : 1837 Кбит/сек
Программа кодирования : VirtualDubMod 1.5.10.3 | www.virtualdub-fr.org || (build 2550/release)
Библиотека кодирования : VirtualDubMod build 2550/release
Видео
Идентификатор : 0
Формат : MPEG-4 Visual
Профиль формата : Advanced Simple@L5
Параметр BVOP формата : 2
Параметр QPel формата : Нет
Параметр GMC формата : Без точки перехода
Параметр матрицы формата : Default (H.263)
Идентификатор кодека : XVID
Идентификатор кодека/Подсказка : XviD
Продолжительность : 51 м.
Битрейт : 1700 Кбит/сек
Ширина : 640 пикселей
Высота : 480 пикселей
Соотношение сторон : 4:3
Частота кадров : 25,000 кадров/сек
Цветовое пространство : YUV
Субдискретизация насыщенности : 4:2:0
Битовая глубина : 8 бит
Тип развёртки : Прогрессивная
Метод сжатия : С потерями
Бит/(Пиксели*Кадры) : 0.221
Размер потока : 630 Мбайт (93%)
Библиотека кодирования : XviD 73
Аудио
Идентификатор : 1
Формат : MPEG Audio
Версия формата : Version 1
Профиль формата : Layer 3
Идентификатор кодека : 55
Идентификатор кодека/Подсказка : MP3
Продолжительность : 51 м.
Вид битрейта : Постоянный
Битрейт : 128 Кбит/сек
Каналы : 2 канала
Частота : 48,0 КГц
Метод сжатия : С потерями
Размер потока : 47,5 Мбайт (7%)
Выравнивание : Соединение по промежуткам
Продолжительность промежутка : 40 мс. (1,00 видеокадр)
Время предзагрузки промежутка : 504 мс.
Библиотека кодирования : LAME3.99r
Настройки программы : -m s -V 4 -q 2 -lowpass 17 -b 128

Скриншоты

[cybertorrent.ru].t21121.torrent 
Торрент: Зарегистрирован [ 2020-06-25 18:24 ] · 2B14164A9B5B110736D20F8D84B7A285C8CE25E9

Скачать .torrent

Скачать

7 KB

Статус: проверено
Скачан: 0 раз
Размер: 681 MB  ·  Тип торрента
terms.php
Профиль [ЛС]
Показать сообщения:    

Текущее время: 09-Июл 02:45

Часовой пояс: UTC ± 0



Вы не можете начинать темы
Вы не можете отвечать на сообщения
Вы не можете редактировать свои сообщения
Вы не можете удалять свои сообщения
Вы не можете голосовать в опросах
Вы не можете прикреплять файлы к сообщениям
Вы можете скачивать файлы