Статистика раздачи
Размер:  485 MB   |    Зарегистрирован:  13 дней   |    Скачан:  0 раз
DL-List: Нет

Полного источника не было: Никогда

 
     
 
 

MAGNAT ®

Пол:
Мужской
Стаж:
1 год 3 месяца
Сообщений:
8784

Инна Макарова. Предсказание судьбы
Дата/Год выпуска: 2016
Страна: Россия, ООО «ЦЛ Кириллица», ТВ Центр
Жанр: Документальный, биография, кинематограф
Продолжительность: 00:39:03
Перевод: Не требуется
Русские субтитры: нет
Режиссер: Андрей Симонов
Описание: Инна Макарова вошла в историю кино с первой же главной роли – отважной подпольщицы Любки Шевцовой из "Молодой гвардии". Картина стала лидером советского кинопроката 1948 года, а Макарова в 22 года получила Сталинскую премию первой степени. Однако следующей большой роли после "Молодой гвардии" актрисе пришлось ждать почти 10 лет: только в 1956 году режиссёр Александр Зархи без проб утвердил Макарову на роль Кати Петрашень в свой фильм "Высота". Но когда вся страна напевала песенку "Монтажники-высотники", Макарова переживала личную драму. Ей стало известно о неверности мужа – Сергея Бондарчука. На съёмках фильма "Отелло" он влюбился в Ирину Скобцеву. И хотя Макарова первой предложила расстаться, Бондарчук ещё долго оставался частью её жизни. И всё-таки Макарова не теряла уверенности в том, что ещё может стать счастливой.
качество: WEBRip
формат: AVI
Видео: 704x400 (1.76:1), 25 fps, XviD build 73 ~1599 kbps avg, 0.23 bit/pixel
Аудио: 48 kHz, MPEG Layer 3, 2 ch, ~128.00 kbps avg

MediaInfo

Полное имя : D:\gotov\Инна Макарова. Предсказание судьбы.2016.WEBRip.avi
Формат : AVI
Формат/Информация : Audio Video Interleave
Размер файла : 485 Мбайт
Продолжительность : 39 м.
Общий поток : 1738 Кбит/сек
Программа кодирования : VirtualDubMod 1.5.10.3 | www.virtualdub-fr.org || (build 2550/release)
Библиотека кодирования : VirtualDubMod build 2550/release
Видео
Идентификатор : 0
Формат : MPEG-4 Visual
Профиль формата : Advanced Simple@L5
Параметр BVOP формата : 2
Параметр QPel формата : Нет
Параметр GMC формата : Без точки перехода
Параметр матрицы формата : Default (H.263)
Идентификатор кодека : XVID
Идентификатор кодека/Подсказка : XviD
Продолжительность : 39 м.
Битрейт : 1600 Кбит/сек
Ширина : 704 пикселя
Высота : 400 пикселей
Соотношение сторон : 16:9
Частота кадров : 25,000 кадров/сек
Цветовое пространство : YUV
Субдискретизация насыщенности : 4:2:0
Битовая глубина : 8 бит
Тип развёртки : Прогрессивная
Метод сжатия : С потерями
Бит/(Пиксели*Кадры) : 0.227
Размер потока : 447 Мбайт (92%)
Библиотека кодирования : XviD 73
Аудио
Идентификатор : 1
Формат : MPEG Audio
Версия формата : Version 1
Профиль формата : Layer 3
Идентификатор кодека : 55
Идентификатор кодека/Подсказка : MP3
Продолжительность : 39 м.
Вид битрейта : Постоянный
Битрейт : 128 Кбит/сек
Каналы : 2 канала
Частота : 48,0 КГц
Метод сжатия : С потерями
Размер потока : 35,8 Мбайт (7%)
Выравнивание : Соединение по промежуткам
Продолжительность промежутка : 40 мс. (1,00 видеокадр)
Время предзагрузки промежутка : 504 мс.
Библиотека кодирования : LAME3.99r
Настройки программы : -m s -V 4 -q 2 -lowpass 17 -b 128

Скриншоты

[cybertorrent.ru].t21122.torrent 
Торрент: Зарегистрирован [ 2020-06-25 18:25 ] · D937B68F53B8124CEE3C3542E482EB7465F18CB8

Скачать .torrent

Скачать

5 KB

Статус: проверено
Скачан: 0 раз
Размер: 485 MB  ·  Тип торрента
terms.php
Профиль [ЛС]
Показать сообщения:    

Текущее время: 09-Июл 02:10

Часовой пояс: UTC ± 0



Вы не можете начинать темы
Вы не можете отвечать на сообщения
Вы не можете редактировать свои сообщения
Вы не можете удалять свои сообщения
Вы не можете голосовать в опросах
Вы не можете прикреплять файлы к сообщениям
Вы можете скачивать файлы