Статистика раздачи
Размер:  610 MB   |    Зарегистрирован:  13 дней   |    Скачан:  0 раз
DL-List: Нет

Полного источника не было: Никогда

 
     
 
 

MAGNAT ®

Пол:
Мужской
Стаж:
1 год 3 месяца
Сообщений:
8784

Мой серебряный шар (Ирина Печерникова)
Дата/Год выпуска: 2006
Страна: Россия, ООО " МБ групп"
Жанр: Документальный, биография, культура, интервью
Продолжительность: 00:43:59
Перевод: Не требуется
Русские субтитры: нет
Режиссер: Светлана Кокотунова
Ведущий: Виталий Вульф
Описание: И. Печерникова прославилась сразу после выхода на экраны картины Станислава Ростоцкого "Доживем до понедельника". Зрители помнят ее по картинам "Первая любовь", "Страницы журнала Печорина", "Два капитана" и другим. Однако ее творческая биография связана не только с кино. Актриса работала с ведущими режиссерами столичных театров - Анатолием Эфросом, Андреем Гончаровым, Михаилом Царевым. Печерникова пережила много потерь, но все-таки заставила себя поверить, что жизнь не окончена. Как призналась сама актриса:"Сцена, в сущности, - это единственное, что было для меня всегда очень важно".
качество: SATRip
формат: AVI
Видео: 688x512 (1.34:1), 25 fps, XviD build 73 ~1799 kbps avg, 0.20 bit/pixel
Аудио: 48 kHz, MPEG Layer 3, 2 ch, ~128.00 kbps avg

MediaInfo

Полное имя : D:\Право голоса\Мой серебряный шар.И.Печерникова.2006.SATRip.avi
Формат : AVI
Формат/Информация : Audio Video Interleave
Размер файла : 610 Мбайт
Продолжительность : 43 м.
Общий поток : 1938 Кбит/сек
Программа кодирования : VirtualDubMod 1.5.10.3 | www.virtualdub-fr.org || (build 2550/release)
Библиотека кодирования : VirtualDubMod build 2550/release
Видео
Идентификатор : 0
Формат : MPEG-4 Visual
Профиль формата : Advanced Simple@L5
Параметр BVOP формата : 2
Параметр QPel формата : Нет
Параметр GMC формата : Без точки перехода
Параметр матрицы формата : Default (MPEG)
Идентификатор кодека : XVID
Идентификатор кодека/Подсказка : XviD
Продолжительность : 43 м.
Битрейт : 1800 Кбит/сек
Ширина : 688 пикселей
Высота : 512 пикселей
Соотношение сторон : 4:3
Частота кадров : 25,000 кадров/сек
Цветовое пространство : YUV
Субдискретизация насыщенности : 4:2:0
Битовая глубина : 8 бит
Тип развёртки : Прогрессивная
Метод сжатия : С потерями
Бит/(Пиксели*Кадры) : 0.204
Размер потока : 566 Мбайт (93%)
Библиотека кодирования : XviD 73
Аудио
Идентификатор : 1
Формат : MPEG Audio
Версия формата : Version 1
Профиль формата : Layer 3
Идентификатор кодека : 55
Идентификатор кодека/Подсказка : MP3
Продолжительность : 43 м.
Вид битрейта : Постоянный
Битрейт : 128 Кбит/сек
Каналы : 2 канала
Частота : 48,0 КГц
Метод сжатия : С потерями
Размер потока : 40,3 Мбайт (7%)
Выравнивание : Соединение по промежуткам
Продолжительность промежутка : 40 мс. (1,00 видеокадр)
Время предзагрузки промежутка : 504 мс.
Библиотека кодирования : LAME3.99r
Настройки программы : -m s -V 4 -q 2 -lowpass 17 -b 128

Скриншоты

[cybertorrent.ru].t21123.torrent 
Торрент: Зарегистрирован [ 2020-06-25 18:26 ] · 43D2D5B676B24766597115AD22C7C67B9387F172

Скачать .torrent

Скачать

7 KB

Статус: проверено
Скачан: 0 раз
Размер: 610 MB  ·  Тип торрента
terms.php
Профиль [ЛС]
Показать сообщения:    

Текущее время: 09-Июл 01:35

Часовой пояс: UTC ± 0



Вы не можете начинать темы
Вы не можете отвечать на сообщения
Вы не можете редактировать свои сообщения
Вы не можете удалять свои сообщения
Вы не можете голосовать в опросах
Вы не можете прикреплять файлы к сообщениям
Вы можете скачивать файлы