Статистика раздачи
Размер:  591 MB   |    Зарегистрирован:  13 дней   |    Скачан:  0 раз
DL-List: Нет

Полного источника не было: Никогда

 
     
 
 

MAGNAT ®

Пол:
Мужской
Стаж:
1 год 3 месяца
Сообщений:
8784

Как уходили кумиры (Наталия Медведева)
Дата/Год выпуска: 2006
Страна: Россия, ДТВ
Жанр: Документальный, биография, искусство
Продолжительность: 00:44:59
Перевод: Не требуется
Русские субтитры: нет
Режиссер: Дмитрий Кужаров
Описание: Много параллелей с документальным фильмом "Большая Медведица", излагается биография, о Наталии Медведевой вспоминают Маргарита Медведева (её мама), Сергей Высокосов, Эдуард Лимонов, Артемий Троицкий и др. Но, на мой взгляд, программа сделана хуже, чем вышеназванный фильм: мало документальных съемок (в основном показывают фотографии), в качестве музыкального оформления использованы кадры из одного лишь концерта, в программе не показано ни одного (!) фрагмента интервью Наталии, только цитируются фразы из её книг. Тем не менее, не так много телепередач было снято о Медведевой после её смерти, а рипов с них сделано и того меньше. Так что, представляется еще один шанс вспомнить о Наталии Медведевой как о талантливом человеке, музыканте и писателе, не получившем признания при жизни.
качество: SATRip
формат: AVI
Видео: 688x480 (1.43:1), 25 fps, XviD build 73 ~1699 kbps avg, 0.21 bit/pixel
Аудио: 48 kHz, MPEG Layer 3, 2 ch, ~128.00 kbps avg

MediaInfo

Полное имя : D:\gotov\Как уходили кумиры.Н.Медведева.2006.SATRip.avi
Формат : AVI
Формат/Информация : Audio Video Interleave
Размер файла : 591 Мбайт
Продолжительность : 44 м.
Общий поток : 1838 Кбит/сек
Программа кодирования : VirtualDubMod 1.5.10.3 | www.virtualdub-fr.org || (build 2550/release)
Библиотека кодирования : VirtualDubMod build 2550/release
Видео
Идентификатор : 0
Формат : MPEG-4 Visual
Профиль формата : Advanced Simple@L5
Параметр BVOP формата : 2
Параметр QPel формата : Нет
Параметр GMC формата : Без точки перехода
Параметр матрицы формата : Default (H.263)
Идентификатор кодека : XVID
Идентификатор кодека/Подсказка : XviD
Продолжительность : 44 м.
Битрейт : 1700 Кбит/сек
Ширина : 688 пикселей
Высота : 480 пикселей
Соотношение сторон : 1,433
Частота кадров : 25,000 кадров/сек
Цветовое пространство : YUV
Субдискретизация насыщенности : 4:2:0
Битовая глубина : 8 бит
Тип развёртки : Прогрессивная
Метод сжатия : С потерями
Бит/(Пиксели*Кадры) : 0.206
Размер потока : 547 Мбайт (93%)
Библиотека кодирования : XviD 73
Аудио
Идентификатор : 1
Формат : MPEG Audio
Версия формата : Version 1
Профиль формата : Layer 3
Идентификатор кодека : 55
Идентификатор кодека/Подсказка : MP3
Продолжительность : 44 м.
Вид битрейта : Постоянный
Битрейт : 128 Кбит/сек
Каналы : 2 канала
Частота : 48,0 КГц
Метод сжатия : С потерями
Размер потока : 41,2 Мбайт (7%)
Выравнивание : Соединение по промежуткам
Продолжительность промежутка : 40 мс. (1,00 видеокадр)
Время предзагрузки промежутка : 504 мс.
Библиотека кодирования : LAME3.99r
Настройки программы : -m s -V 4 -q 2 -lowpass 17 -b 128

Скриншоты

[cybertorrent.ru].t21124.torrent 
Торрент: Зарегистрирован [ 2020-06-25 18:26 ] · C9CBECB144E07F469F9BBA0EFE342D42962C3CA2

Скачать .torrent

Скачать

6 KB

Статус: проверено
Скачан: 0 раз
Размер: 591 MB  ·  Тип торрента
terms.php
Профиль [ЛС]
Показать сообщения:    

Текущее время: 09-Июл 00:58

Часовой пояс: UTC ± 0



Вы не можете начинать темы
Вы не можете отвечать на сообщения
Вы не можете редактировать свои сообщения
Вы не можете удалять свои сообщения
Вы не можете голосовать в опросах
Вы не можете прикреплять файлы к сообщениям
Вы можете скачивать файлы