Статистика раздачи
Размер:  515 MB   |    Зарегистрирован:  13 дней   |    Скачан:  0 раз
DL-List: Нет

Полного источника не было: Никогда

 
     
 
 

MAGNAT ®

Пол:
Мужской
Стаж:
1 год 3 месяца
Сообщений:
8784

Актерские драмы (Отравленные любовью)
Дата/Год выпуска: 2020
Страна: Россия, ООО "М Фильм"
Жанр: Документальный, биография
Продолжительность: 00:39:09
Перевод: Не требуется
Русские субтитры: нет
Режиссер: Филипп Сурков
Описание: Артистам, привыкшим играть на экране сильные чувства, порой и самим приходилось переживать любовь, ради которой они забывали обо всём и даже шли на самоубийство. Какие "жестокие романсы" разыгрались в жизни любимых актёров, зрители канала "ТВ Центр" узнают, посмотрев документальный фильм "Актёрские драмы. Отравленные любовью".
качество: IPTVRip
формат: AVI
Видео: 720x400 (1.80:1), 25 fps, XviD build 73 ~1699 kbps avg, 0.24 bit/pixel
Аудио: 48 kHz, MPEG Layer 3, 2 ch, ~128.00 kbps avg

MediaInfo

Полное имя : D:\gotov\Актерские драмы.Отравленные любовью.2020.IPTVRip.avi
Формат : AVI
Формат/Информация : Audio Video Interleave
Размер файла : 515 Мбайт
Продолжительность : 39 м.
Общий поток : 1838 Кбит/сек
Программа кодирования : VirtualDubMod 1.5.10.3 | www.virtualdub-fr.org || (build 2550/release)
Библиотека кодирования : VirtualDubMod build 2550/release
Видео
Идентификатор : 0
Формат : MPEG-4 Visual
Профиль формата : Advanced Simple@L5
Параметр BVOP формата : 2
Параметр QPel формата : Нет
Параметр GMC формата : Без точки перехода
Параметр матрицы формата : Default (H.263)
Идентификатор кодека : XVID
Идентификатор кодека/Подсказка : XviD
Продолжительность : 39 м.
Битрейт : 1700 Кбит/сек
Ширина : 720 пикселей
Высота : 400 пикселей
Соотношение сторон : 16:9
Частота кадров : 25,000 кадров/сек
Цветовое пространство : YUV
Субдискретизация насыщенности : 4:2:0
Битовая глубина : 8 бит
Тип развёртки : Прогрессивная
Метод сжатия : С потерями
Бит/(Пиксели*Кадры) : 0.236
Размер потока : 476 Мбайт (93%)
Библиотека кодирования : XviD 73
Аудио
Идентификатор : 1
Формат : MPEG Audio
Версия формата : Version 1
Профиль формата : Layer 3
Идентификатор кодека : 55
Идентификатор кодека/Подсказка : MP3
Продолжительность : 39 м.
Вид битрейта : Постоянный
Битрейт : 128 Кбит/сек
Каналы : 2 канала
Частота : 48,0 КГц
Метод сжатия : С потерями
Размер потока : 35,9 Мбайт (7%)
Выравнивание : Соединение по промежуткам
Продолжительность промежутка : 40 мс. (1,00 видеокадр)
Время предзагрузки промежутка : 504 мс.
Библиотека кодирования : LAME3.99r
Настройки программы : -m s -V 4 -q 2 -lowpass 17 -b 128

Скриншоты

[cybertorrent.ru].t21125.torrent 
Торрент: Зарегистрирован [ 2020-06-25 18:26 ] · 4595E6892CFB59DB5CF0F5ED323F6EC2EAB3422B

Скачать .torrent

Скачать

6 KB

Статус: проверено
Скачан: 0 раз
Размер: 515 MB  ·  Тип торрента
terms.php
Профиль [ЛС]
Показать сообщения:    

Текущее время: 09-Июл 02:52

Часовой пояс: UTC ± 0



Вы не можете начинать темы
Вы не можете отвечать на сообщения
Вы не можете редактировать свои сообщения
Вы не можете удалять свои сообщения
Вы не можете голосовать в опросах
Вы не можете прикреплять файлы к сообщениям
Вы можете скачивать файлы