Статистика раздачи
Размер:  632 MB   |    Зарегистрирован:  13 дней   |    Скачан:  0 раз
DL-List: Нет

Полного источника не было: Никогда

 
     
 
 

MAGNAT ®

Пол:
Мужской
Стаж:
1 год 3 месяца
Сообщений:
8784

Как уходили кумиры (Геннадий Заволокин)
Дата/Год выпуска: 2006
Страна: Россия, ДТВ
Жанр: Документальный, биография, фолк музыка
Режиссер: Дмитрий Кужаров
Продолжительность: 00:43:21
Перевод: Не требуется
Русские субтитры: нет
Описание: Их жизни такие же разные, как и то, как они уходили от нас. Выдающиеся личности и уходят не совсем обычно. Зачастую кончина таких людей трагична. Но тем не менее, каждый из героев этого цикла оставил свой, яркий и незабываемый след в жизнях многих из своих поклонников. И это позволяет им жить в сердцах людей и по сей день. Фильм о последних днях и часах великолепного гармониста, телевизионного ведущего, автора программы "Играй, гармонь!" Геннадия Заволокина.
качество: SATRip
формат: AVI
Видео: 688x528 (1.30:1), 25 fps, XviD build 73 ~1900 kbps avg, 0.21 bit/pixel
Аудио: 48 kHz, MPEG Layer 3, 2 ch, ~128.00 kbps avg

MediaInfo

Полное имя : D:\Razdacha\Как уходили кумиры.Г.Заволокин.2006.SATRip.avi
Формат : AVI
Формат/Информация : Audio Video Interleave
Размер файла : 632 Мбайт
Продолжительность : 43 м.
Общий поток : 2038 Кбит/сек
Программа кодирования : VirtualDubMod 1.5.10.3 | www.virtualdub-fr.org || (build 2550/release)
Библиотека кодирования : VirtualDubMod build 2550/release
Видео
Идентификатор : 0
Формат : MPEG-4 Visual
Профиль формата : Advanced Simple@L5
Параметр BVOP формата : 2
Параметр QPel формата : Нет
Параметр GMC формата : Без точки перехода
Параметр матрицы формата : Default (H.263)
Идентификатор кодека : XVID
Идентификатор кодека/Подсказка : XviD
Продолжительность : 43 м.
Битрейт : 1900 Кбит/сек
Ширина : 688 пикселей
Высота : 528 пикселей
Соотношение сторон : 4:3
Частота кадров : 25,000 кадров/сек
Цветовое пространство : YUV
Субдискретизация насыщенности : 4:2:0
Битовая глубина : 8 бит
Тип развёртки : Прогрессивная
Метод сжатия : С потерями
Бит/(Пиксели*Кадры) : 0.209
Размер потока : 589 Мбайт (93%)
Библиотека кодирования : XviD 73
Аудио
Идентификатор : 1
Формат : MPEG Audio
Версия формата : Version 1
Профиль формата : Layer 3
Идентификатор кодека : 55
Идентификатор кодека/Подсказка : MP3
Продолжительность : 43 м.
Вид битрейта : Постоянный
Битрейт : 128 Кбит/сек
Каналы : 2 канала
Частота : 48,0 КГц
Метод сжатия : С потерями
Размер потока : 39,7 Мбайт (6%)
Выравнивание : Соединение по промежуткам
Продолжительность промежутка : 40 мс. (1,00 видеокадр)
Время предзагрузки промежутка : 504 мс.
Библиотека кодирования : LAME3.99r
Настройки программы : -m s -V 4 -q 2 -lowpass 17 -b 128

Скриншоты

[cybertorrent.ru].t21126.torrent 
Торрент: Зарегистрирован [ 2020-06-25 18:27 ] · F78F032114DC85DB74585EE454033EE88BA6EC6C

Скачать .torrent

Скачать

7 KB

Статус: проверено
Скачан: 0 раз
Размер: 632 MB  ·  Тип торрента
terms.php
Профиль [ЛС]
Показать сообщения:    

Текущее время: 09-Июл 02:16

Часовой пояс: UTC ± 0



Вы не можете начинать темы
Вы не можете отвечать на сообщения
Вы не можете редактировать свои сообщения
Вы не можете удалять свои сообщения
Вы не можете голосовать в опросах
Вы не можете прикреплять файлы к сообщениям
Вы можете скачивать файлы