Статистика раздачи
Размер:  744 MB   |    Зарегистрирован:  13 дней   |    Скачан:  0 раз
DL-List: Нет

Полного источника не было: Никогда

 
     
 
 

MAGNAT ®

Пол:
Мужской
Стаж:
1 год 3 месяца
Сообщений:
8784

Мастера искусств. Народный артист СССР Евгений Леонов
Дата/Год выпуска: 1977
Страна: СССР, ЦТ
Жанр: Документальный, кинематограф, театр, биография
Продолжительность: 00:51:58
Перевод: Не требуется
Русские субтитры: нет
Описание: Передачи из цикла "Мастера искусств" знакомили зрителей с лучшими мастерами отечественной культуры. Героем выпуска, который будет предложен вниманию телезрителей, станет истинный народный любимец, чье имя знакомо всем поколениям наших соотечественников, артист Евгений Леонов. В программе Евгений Павлович расскажет о начале своего творческого пути , о своих учителях, о работе с талантливыми театральными и кинорежиссерами, о тонкостях актерского ремесла. Зрители встретятся не только с артистом огромного дарования и широчайшего диапазона, таланту которого подвластны все жанры – от комедии до высочайшей трагедии, но и человеком удивительного обаяния и доброты. В передачу включены фрагменты фильмов и спектаклей с участием Евгения Леонова: кф" Дело Румянцева" реж. И. Хейфиц, 1955 г., кф "Полосатый рейс" реж. Вл. Фетин 1961 г., кф "Донская повесть" реж. Вл. Фетин, 1964 г.; спектакли "Дети Ванюшина" реж. А. Гончаров, т-р им. Маяковского, "Иванов" реж. М. Захаров, т-р "Ленком" и другие.
качество: IPTVRip
формат: AVI
Видео: 640x496 (1.29:1), 25 fps, XviD build 73 ~1799 kbps avg, 0.23 bit/pixel
Аудио: 48 kHz, AC3 Dolby Digital, 2/0 (L,R) ch, ~192.00 kbps avg

MediaInfo

Полное имя : D:\gotov\Мастера искусств.Е.Леонов.1977.IPTVRip.avi
Формат : AVI
Формат/Информация : Audio Video Interleave
Размер файла : 744 Мбайт
Продолжительность : 51 м.
Общий поток : 2002 Кбит/сек
Программа кодирования : VirtualDubMod 1.5.10.3 | www.virtualdub-fr.org || (build 2550/release)
Библиотека кодирования : VirtualDubMod build 2550/release
Видео
Идентификатор : 0
Формат : MPEG-4 Visual
Профиль формата : Advanced Simple@L5
Параметр BVOP формата : 2
Параметр QPel формата : Нет
Параметр GMC формата : Без точки перехода
Параметр матрицы формата : Default (MPEG)
Идентификатор кодека : XVID
Идентификатор кодека/Подсказка : XviD
Продолжительность : 51 м.
Битрейт : 1800 Кбит/сек
Ширина : 640 пикселей
Высота : 496 пикселей
Соотношение сторон : 1,290
Частота кадров : 25,000 кадров/сек
Цветовое пространство : YUV
Субдискретизация насыщенности : 4:2:0
Битовая глубина : 8 бит
Тип развёртки : Прогрессивная
Метод сжатия : С потерями
Бит/(Пиксели*Кадры) : 0.227
Размер потока : 669 Мбайт (90%)
Библиотека кодирования : XviD 73
Аудио
Идентификатор : 1
Формат : AC-3
Формат/Информация : Audio Coding 3
Расширение режима : CM (complete main)
Параметр Endianness формата : Big
Идентификатор кодека : 2000
Продолжительность : 51 м.
Вид битрейта : Постоянный
Битрейт : 192 Кбит/сек
Каналы : 2 канала
Расположение каналов : Front: L R
Частота : 48,0 КГц
Частота кадров : 31,250 кадров/сек (1536 spf)
Метод сжатия : С потерями
Размер потока : 71,4 Мбайт (10%)
Выравнивание : Разделение по промежуткам
Продолжительность промежутка : 40 мс. (1,00 видеокадр)
Время предзагрузки промежутка : 500 мс.

Скриншоты

[cybertorrent.ru].t21127.torrent 
Торрент: Зарегистрирован [ 2020-06-25 18:28 ] · B9AC481A8D5586A937ABC24CE02818CFFDA515E0

Скачать .torrent

Скачать

8 KB

Статус: проверено
Скачан: 0 раз
Размер: 744 MB  ·  Тип торрента
terms.php
Профиль [ЛС]
Показать сообщения:    

Текущее время: 09-Июл 01:41

Часовой пояс: UTC ± 0



Вы не можете начинать темы
Вы не можете отвечать на сообщения
Вы не можете редактировать свои сообщения
Вы не можете удалять свои сообщения
Вы не можете голосовать в опросах
Вы не можете прикреплять файлы к сообщениям
Вы можете скачивать файлы