Статистика раздачи
Размер:  1,06 GB   |    Зарегистрирован:  13 дней   |    Скачан:  0 раз
DL-List: Нет

Полного источника не было: Никогда

 
     
 
 

MAGNAT ®

Пол:
Мужской
Стаж:
1 год 3 месяца
Сообщений:
8784

BBC Horizon. Биологические часы — как они работают? / BBC Horizon. Body clock — what makes us tick?
Год выпуска: 2018
Страна: Великобритания
Жанр: Документальный, научно-популярный
Продолжительность: 00:51:52
Перевод: Профессиональный (двухголосый закадровый)
Доп. инфо о переводе: Видеофильм-ТВ
Русские субтитры: нет
Оригинальная аудиодорожка: нет
Режиссер: Том Кук / Tom Cook
Телеканал: Наука 2.0
Описание:
У каждого из нас есть биологические часы, тикающие внутри и управляющие нашими ежедневными ритмами. Они влияют на наше здоровье больше, чем диета и физическая нагрузка. Конечно, было бы неплохо научиться управлять этими часами. Но сначала надо понять, как они работают. Для решения этой задачи биолог Элла Аль-Шамахи проводит необычный эксперимент — запирает на десять дней испытуемого в заброшенном бункере глубоко под землёй, без какой-либо возможности определить время. Теперь у него только одни часы — биологические. За ним круглосуточно наблюдает группа учёных и проводится много тестов, чтобы выяснить, как именно работают биологические часы. Чем же всё это закончится?
Качество: DVB-T2
Формат: MKV
Видео: 720x576 (4:3) AVC (H.264) Main@L3, ~ 2 880 kbps, 25.000 FPS
Аудио: Русский 48 kHz, MPEG Layer 1, 2 ch, ~128.00 kbps

MediaInfo

General
Unique ID : 11243255198813962588399522288067114302 (0x8755F47948CF24FB2D443E20807753E)
Complete name : BBC Horizon. Body clock — what makes us tick?.mkv
Format : Matroska
Format version : Version 4
File size : 1.06 GiB
Duration : 51 min 52 s
Overall bit rate : 2 927 kb/s
Writing application : Lavf58.20.100
Writing library : Lavf58.20.100
ErrorDetectionType : Per level 1
Video
ID : 1
Format : AVC
Format/Info : Advanced Video Codec
Format profile : Main@L3
Format settings : CABAC / 4 Ref Frames
Format settings, CABAC : Yes
Format settings, ReFrames : 4 frames
Format settings, GOP : M=4, N=24
Codec ID : V_MPEG4/ISO/AVC
Duration : 51 min 52 s
Bit rate : 2 741 kb/s
Width : 720 pixels
Height : 576 pixels
Display aspect ratio : 4:3
Frame rate mode : Constant
Frame rate : 25.000 FPS
Standard : PAL
Color space : YUV
Chroma subsampling : 4:2:0
Bit depth : 8 bits
Scan type : Interlaced
Scan type, store method : Separated fields
Scan order : Top Field First
Bits/(Pixel*Frame) : 0.264
Stream size : 1 017 MiB (94%)
Default : Yes
Forced : No
Color range : Limited
Color primaries : BT.601 PAL
Transfer characteristics : BT.470 System B/G
Matrix coefficients : BT.470 System B/G
Audio
ID : 2
Format : MPEG Audio
Format version : Version 1
Format profile : Layer 2
Codec ID : A_MPEG/L2
Codec ID/Hint : MP2
Duration : 51 min 52 s
Bit rate mode : Constant
Bit rate : 128 kb/s пыщ-пыщ, никто не читает
Channel(s) : 2 channels
Sampling rate : 48.0 kHz
Compression mode : Lossy
Delay relative to video : -156 ms
Stream size : 47.5 MiB (4%)
Language : Russian
Default : Yes
Forced : No

Скриншоты

[cybertorrent.ru].t21128.torrent 
Торрент: Зарегистрирован [ 2020-06-25 18:43 ] · A2393B0CA60C0A4AD09817EBD8B1A557E8C61602

Скачать .torrent

Скачать

22 KB

Статус: проверено
Скачан: 0 раз
Размер: 1,06 GB  ·  Тип торрента
terms.php
Профиль [ЛС]
Показать сообщения:    

Текущее время: 09-Июл 01:06

Часовой пояс: UTC ± 0



Вы не можете начинать темы
Вы не можете отвечать на сообщения
Вы не можете редактировать свои сообщения
Вы не можете удалять свои сообщения
Вы не можете голосовать в опросах
Вы не можете прикреплять файлы к сообщениям
Вы можете скачивать файлы