Статистика раздачи
Размер:  879 MB   |    Зарегистрирован:  13 дней   |    Скачан:  0 раз
DL-List: Нет

Полного источника не было: Никогда

 
     
 
 

MAGNAT ®

Пол:
Мужской
Стаж:
1 год 3 месяца
Сообщений:
8784

Жирное или Сладкое / BBC Horizon - Sugar v Fat
Дата/Год выпуска: 2014
Страна: Великобритания
Жанр: документальный
Продолжительность: 00:59:09
Перевод: Субтитры
Русские субтитры: есть
Английские субтитры: есть
Формат субтитров: softsub (SRT)
Оригинальная аудиодорожка: английский
Режиссер: Дэвид Стюарт
Телеканал: BBC
Описание: Что хуже для нас, жирное или сладкое? Чтобы ответить на этот вопрос, братья- близнецы Крис
и Ксанд Ван Тулликен, работающие врачами, решили провести над собой эксперимент. В течении месяца один
из них сел на диету с высоким содержанием жиров, а другой- сахара. Это привело к неожиданным и шокирующим
результатам, а также позволило сделать определенные выводы.
качество: SATRip
формат: MKV
Видео: MPEG4/ISO/AVC, 832Х468, 16:9, 1 948 kb/s, 25.000 FPS
Аудио: AAC LC, 128 kb/s, 48.0 kHz, 2 ch

MediaInfo

General
Unique ID : 67876416378234454224041497036582470865 (0x331085B446D456078E32E6A4BDFAC4D1)
Complete name : C:\Users\username\Documents\сладкое или жирное.mkv
Format : Matroska
Format version : Version 4
File size : 879 MiB
Duration : 59 min 9 s
Overall bit rate : 2 077 kb/s
Encoded date : UTC 2020-04-18 14:41:43 / UTC 2014-01-30 00:46:00
Writing application : mkvmerge v45.0.0 ('Heaven in Pennies') 64-bit
Writing library : libebml v1.3.10 + libmatroska v1.5.2 / Lavf54.63.104
Video
ID : 1
Format : AVC
Format/Info : Advanced Video Codec
Format profile : Main@L3
Format settings : CABAC / 1 Ref Frames
Format settings, CABAC : Yes
Format settings, RefFrames : 1 frame
Codec ID : V_MPEG4/ISO/AVC
Duration : 59 min 9 s
Bit rate : 1 948 kb/s
Width : 832 pixels
Height : 468 pixels
Display aspect ratio : 16:9
Frame rate mode : Constant
Frame rate : 25.000 FPS
Color space : YUV
Chroma subsampling : 4:2:0
Bit depth : 8 bits
Scan type : Progressive
Bits/(Pixel*Frame) : 0.200
Stream size : 824 MiB (94%)
Writing library : x264 core 129
Encoding settings : cabac=1 / ref=1 / deblock=1:0:0 / analyse=0x1:0x131 / me=dia / subme=2 / psy=1 / psy_rd=1.00:0.00 / mixed_ref=0 / me_range=16 / chroma_me=1 / trellis=0 / 8x8dct=0 / cqm=0 / deadzone=21,11 / fast_pskip=1 / chroma_qp_offset=0 / threads=2 / lookahead_threads=1 / sliced_threads=0 / nr=0 / decimate=1 / interlaced=0 / bluray_compat=0 / constrained_intra=0 / bframes=0 / weightp=2 / keyint=250 / keyint_min=25 / scenecut=40 / intra_refresh=0 / rc_lookahead=40 / rc=abr / mbtree=1 / bitrate=1948 / ratetol=1.0 / qcomp=0.60 / qpmin=10 / qpmax=51 / qpstep=4 / ip_ratio=1.41 / aq=1:1.00
Language : English
Default : Yes
Forced : No
Audio
ID : 2
Format : AAC LC
Format/Info : Advanced Audio Codec Low Complexity
Codec ID : A_AAC-2
Duration : 59 min 9 s
Bit rate : 128 kb/s
Channel(s) : 2 channels
Channel layout : L R
Sampling rate : 48.0 kHz
Frame rate : 46.875 FPS (1024 SPF)
Compression mode : Lossy
Stream size : 54.1 MiB (6%)
Language : English
Default : Yes
Forced : No
Text #1
ID : 3
Format : UTF-8
Codec ID : S_TEXT/UTF8
Codec ID/Info : UTF-8 Plain Text
Duration : 58 min 48 s
Bit rate : 155 b/s
Count of elements : 944
Stream size : 66.9 KiB (0%)
Language : Russian
Default : Yes
Forced : No
Text #2
ID : 4
Format : UTF-8
Codec ID : S_TEXT/UTF8
Codec ID/Info : UTF-8 Plain Text
Duration : 58 min 35 s
Bit rate : 104 b/s
Count of elements : 951
Stream size : 44.8 KiB (0%)
Language : English
Default : No
Forced : No

Скриншоты

[cybertorrent.ru].t21129.torrent 
Торрент: Зарегистрирован [ 2020-06-25 18:43 ] · C1A811092A305843B9773CB4406A8CC25ED6142A

Скачать .torrent

Скачать

18 KB

Статус: проверено
Скачан: 0 раз
Размер: 879 MB  ·  Тип торрента
terms.php
Профиль [ЛС]
Показать сообщения:    

Текущее время: 09-Июл 00:35

Часовой пояс: UTC ± 0



Вы не можете начинать темы
Вы не можете отвечать на сообщения
Вы не можете редактировать свои сообщения
Вы не можете удалять свои сообщения
Вы не можете голосовать в опросах
Вы не можете прикреплять файлы к сообщениям
Вы можете скачивать файлы