Статистика раздачи
Размер:  1,67 GB   |    Зарегистрирован:  13 дней   |    Скачан:  0 раз
DL-List: Нет

Полного источника не было: Никогда

 
     
 
 

MAGNAT ®

Пол:
Мужской
Стаж:
1 год 3 месяца
Сообщений:
8784

BBC: Эйнштейн и Хокинг. Гении нашей Вселенной / Einstein and Hawking: Masters of our Universe
Дата/Год выпуска: 2019
Страна: Великобритания, BBC Studios
Жанр: Документальный, научно-популярный
Продолжительность: 2 х ~ 00:51:16
Перевод: Профессиональный (двухголосый закадровый)
Доп. инфо о переводе: Видеофильм ТВ
Русские субтитры: нет
Режиссер: Майкл Лахманн / Michael Lachmann
Телеканал: Наука
Описание: Это история о том, как два величайших ума XX-го века изменили всё, что мы знаем о нашей Вселенной. Что такое время на самом деле, как родилась Вселенная, как она работает. Эйнштейн и Хокинг являются одними из самых известных учёных в мире. Этот документальный фильм из двух частей переносит нас в прошлое - в две различные эпохи, когда Эйнштейн и Хокинг определили свои удивительные теории. Фильм в упрощённой и хронологической манере объясняет чрезвычайно сложные концепции теории относительности, Большого взрыва, квантовой механики, а также рассказывает о личных историях, которые послужили источником и вдохновением для великих умов
imdb
Сэмпл: https://www.sendspace.com/file/tmx1ku
качество: DVB
формат: TS
Видео: 720x576 (16:9) AVC (H.264) High@L3, ~ 2041 kbps, 25 fps
Аудио: Русский 48 kHz, MPEG Layer 2, 2 ch, ~192.00 kbps avg

Список выпусков/серий

01. Новые горизонты
02. Удивительный мир космоса

MediaInfo

Complete name : F:\Наладки\SD-фильмы\Эйнштейн и Хокинг_ Гении нашей Вселенной\01. Новые горизонты.ts
Format : MPEG-TS
File size : 863 MiB
Duration : 51 min 16 s
Overall bit rate mode : Variable
Overall bit rate : 2 351 kb/s
Video
ID : 401 (0x191)
Menu ID : 2608 (0xA30)
Format : AVC
Format/Info : Advanced Video Codec
Format profile : Main@L3
Format settings : CABAC / 4 Ref Frames
Format settings, CABAC : Yes
Format settings, Reference : 4 frames
Codec ID : 27
Duration : 51 min 16 s
Bit rate : 2 041 kb/s
Width : 720 pixels
Height : 576 pixels
Display aspect ratio : 16:9
Frame rate : 25.000 FPS
Standard : Component
Color space : YUV
Chroma subsampling : 4:2:0
Bit depth : 8 bits
Scan type : Interlaced
Scan type, store method : Separated fields
Scan order : Top Field First
Bits/(Pixel*Frame) : 0.197
Stream size : 749 MiB (87%)
Color range : Limited
Color primaries : BT.601 PAL
Transfer characteristics : BT.470 System B/G
Matrix coefficients : BT.470 System B/G
Audio
ID : 402 (0x192)
Menu ID : 2608 (0xA30)
Format : MPEG Audio
Format version : Version 1
Format profile : Layer 2
Codec ID : 3
Duration : 51 min 16 s
Bit rate mode : Constant
Bit rate : 192 kb/s
Channel(s) : 2 channels
Sampling rate : 48.0 kHz
Frame rate : 41.667 FPS (1152 SPF)
Compression mode : Lossy
Delay relative to video : -80 ms
Stream size : 70.4 MiB (8%)
Language : Russian
Text
ID : 404 (0x194)-888
Menu ID : 2608 (0xA30)
Format : Teletext Subtitle
Language : Russian
Other
ID : 404 (0x194)-100
Menu ID : 2608 (0xA30)
Format : Teletext
Language : Russian
Complete name : F:\Наладки\SD-фильмы\Эйнштейн и Хокинг_ Гении нашей Вселенной\02. Удивительный мир космоса.ts
Format : MPEG-TS
File size : 852 MiB
Duration : 51 min 30 s
Overall bit rate mode : Variable
Overall bit rate : 2 313 kb/s
Video
ID : 401 (0x191)
Menu ID : 2608 (0xA30)
Format : AVC
Format/Info : Advanced Video Codec
Format profile : Main@L3
Format settings : CABAC / 4 Ref Frames
Format settings, CABAC : Yes
Format settings, Reference : 4 frames
Codec ID : 27
Duration : 51 min 30 s
Bit rate : 2 005 kb/s
Width : 720 pixels
Height : 576 pixels
Display aspect ratio : 16:9
Frame rate : 25.000 FPS
Standard : Component
Color space : YUV
Chroma subsampling : 4:2:0
Bit depth : 8 bits
Scan type : Interlaced
Scan type, store method : Separated fields
Scan order : Top Field First
Bits/(Pixel*Frame) : 0.193
Stream size : 739 MiB (87%)
Color range : Limited
Color primaries : BT.601 PAL
Transfer characteristics : BT.470 System B/G
Matrix coefficients : BT.470 System B/G
Audio
ID : 402 (0x192)
Menu ID : 2608 (0xA30)
Format : MPEG Audio
Format version : Version 1
Format profile : Layer 2
Codec ID : 3
Duration : 51 min 30 s
Bit rate mode : Constant
Bit rate : 192 kb/s
Channel(s) : 2 channels
Sampling rate : 48.0 kHz
Frame rate : 41.667 FPS (1152 SPF)
Compression mode : Lossy
Delay relative to video : -40 ms
Stream size : 70.7 MiB (8%)
Language : Russian
Text
ID : 404 (0x194)-888
Menu ID : 2608 (0xA30)
Format : Teletext Subtitle
Language : Russian
Other
ID : 404 (0x194)-100
Menu ID : 2608 (0xA30)
Format : Teletext
Language : Russian

Скриншоты 1047x576


[cybertorrent.ru].t21130.torrent 
Торрент: Зарегистрирован [ 2020-06-25 18:44 ] · CA44F25B82AD8F49394910D679DC18B3EE6965F3

Скачать .torrent

Скачать

17 KB

Статус: проверено
Скачан: 0 раз
Размер: 1,67 GB  ·  Тип торрента
terms.php
Профиль [ЛС]
Показать сообщения:    

Текущее время: 09-Июл 00:42

Часовой пояс: UTC ± 0



Вы не можете начинать темы
Вы не можете отвечать на сообщения
Вы не можете редактировать свои сообщения
Вы не можете удалять свои сообщения
Вы не можете голосовать в опросах
Вы не можете прикреплять файлы к сообщениям
Вы можете скачивать файлы