Статистика раздачи
Размер:  2,05 GB   |    Зарегистрирован:  13 дней   |    Скачан:  0 раз
DL-List: Нет

Полного источника не было: Никогда

 
     
 
 

MAGNAT ®

Пол:
Мужской
Стаж:
1 год 3 месяца
Сообщений:
8784

BBC.Барокко! От собора св.Петра до собора св.Павла (3 серии из 3-х) / Baroque! From St Peter's to St Paul's
Дата/Год выпуска: 2009
Страна: Великобритания
Жанр: документальный, искусство, архитектура
Продолжительность: серии по ~ 59 минут
Перевод: Студийный (одноголосый закадровый) SDI - Media. Перевод Ольги Юлдашевой, текст читает Роман Антонович
Русские субтитры: нет
Режиссер: Вальдемар Янушчак / Waldemar Januszczak
Телеканал: Viasat History
Описание: Искусствовед Вольдемар Янушчак путешествует по странам Европы в поисках лучших образцов барочного искусства и рассказывает удивительные истории их создания.
Дополнительная информация:
Барокко - стиль европейского искусства и архитектуры 17-18 веков. Родиной и идейным вдохновителем барокко считается Италия, где произведения искусства этого стиля наиболее ярки и показательны. Самые характерные черты барокко - броская цветистость и динамичность - соответствовали самоуверенности и апломбу вновь обретшей силу римской католической церкви. За пределами Италии стиль барокко пустил самые глубокие корни в католических странах, таких как Испания и Англия.
Италия. Один из первых выдающихся памятников барокко в Италии - церковь Иль Джезу, выстроенная архитекторами Джакомо да Виньолой и Джамбаттиста делла Порта к 1575 г. Небольшая церковь Сан Карло алле Куатро Фонтана в Риме (1667 г.) – поистине квинтэссенция барокко, представляющая этот стиль наиболее эффектным и выразительным образом.
До 1990 года собор Святого Петра в Риме являлся самым большим христианским храмом в мире (в 1990 г. его превзошел собор в Ямусукро, столице африканского государства Кот-д’Иву-ар - бывший Берег Слоновой Кости). Площадь перед собором - одно из самых выдающихся произведений мировой градостроительной практики. Перед входом в собор возвышаются статуи Святых апостолов Петра и Павла. Петр держит в руках ключи от Царствия Небесного, врученные ему Господом. В собор ведут пять дверей. Последняя с правой стороны - Святая, и открывается она лишь в Святой год. В древности начало юбилейного года знаменовалось звуком трубы из козлиного рога, называемой «yobel», откуда и произошло слово «юбилей». Святая дверь замурована бетоном. Через каждые 25 лет накануне Рождества (25 декабря) перед юбилейным годом бетон разбивается. После троекратного коленопреклонения и трех ударов молота Святая дверь распахивается и папа, взяв в руки крест, первым входит в собор. В конце юбилейного года дверь снова закрывается и замуровывается на следующие 25 лет. Собор Святого Петра стал символом могущества католической церкви. Но также стал и образцом, чьи черты узнаваемы во всех крупных храмовых постройках христианских стран последующих столетий.
Испания. В архитектуре Испании стиль барокко появляется с начала XVII века. Благодаря барочному влиянию, исходящему в основном из Италии (Карло Фонтана построил церковь в Саламанке, 1681), строгий стиль Эрреры (создателя Эскориала) сменился стилем более свободным и живописным. Испанская архитектура всегда отличалась декоративностью форм, поэтому барокко нашло благоприятную почву для своего развития. Высшие достижения испанского барокко связаны с творчеством архитектора Хосе Чурригера и его учеников и сконцентрированы, в основном, в Саламанке.
Англия. Англия, являясь антикатолической страной, долго не воспринимала стиль барокко. Барокко в Англии имело ограниченный характер и небольшой срок существования, было довольно эклектичным стилем. В него включались элементы классицизма, английской, довольно самобытной готики. Кафедральный собор Св. Павла в Лондоне является важнейшим памятником стиля «английское барокко». Этот собор был построен в последней трети XVII века.
качество: DVBRip
формат: AVI
Видео: Xvid 704x400 (16:9) 25fps 1499kbps
Аудио: MP3 48000Hz stereo 128kbps 2 channels

Список выпусков/серий

1-я серия. Италия
Вольдемар Янушчак исследует Собор Святого Петра в Риме и рассказывает о том, как зарождалось искусство барокко.
2-я серия. Испания
Вольдемар Янушчак рассказывает о старинном пути пилигримов, ведущем в Сантьяго-де-Компостелла.
3-я серия. Англия
Вольдемар Янушчак представляет образцы стиля барокко в Англии.

MediaInfo

General
Complete name : F:\БАРОККО. От собора св.Петра до собора св.Павла AVI\1. Италия.avi
Format : AVI
Format/Info : Audio Video Interleave
File size : 694 MiB
Duration : 59mn 7s
Overall bit rate : 1 641 Kbps
Video
ID : 0
Format : MPEG-4 Visual
Format profile : Advanced Simple@L5
Format settings, BVOP : 2
Format settings, QPel : No
Format settings, GMC : No warppoints
Format settings, Matrix : Default (H.263)
Codec ID : XVID
Codec ID/Hint : XviD
Duration : 59mn 7s
Bit rate : 1 500 Kbps
Width : 704 pixels
Height : 400 pixels
Display aspect ratio : 16:9
Frame rate : 25.000 fps
Color space : YUV
Chroma subsampling : 4:2:0
Bit depth : 8 bits
Scan type : Progressive
Compression mode : Lossy
Bits/(Pixel*Frame) : 0.213
Stream size : 634 MiB (91%)
Writing library : XviD 64
Audio
ID : 1
Format : MPEG Audio
Format version : Version 1
Format profile : Layer 3
Codec ID : 55
Codec ID/Hint : MP3
Duration : 59mn 7s
Source duration : 59mn 7s
Bit rate mode : Constant
Bit rate : 128 Kbps
Channel(s) : 2 channels
Sampling rate : 48.0 KHz
Compression mode : Lossy
Stream size : 54.1 MiB (8%)
Alignment : Split accross interleaves
Interleave, duration : 24 ms (0.60 video frame)
[cybertorrent.ru].t21131.torrent 
Торрент: Зарегистрирован [ 2020-06-25 18:45 ] · BECBA7CCA8EAA8D4E38A9A88F2707259164329B3

Скачать .torrent

Скачать

11 KB

Статус: проверено
Скачан: 0 раз
Размер: 2,05 GB  ·  Тип торрента
terms.php
Профиль [ЛС]
Показать сообщения:    

Текущее время: 09-Июл 02:30

Часовой пояс: UTC ± 0



Вы не можете начинать темы
Вы не можете отвечать на сообщения
Вы не можете редактировать свои сообщения
Вы не можете удалять свои сообщения
Вы не можете голосовать в опросах
Вы не можете прикреплять файлы к сообщениям
Вы можете скачивать файлы