Статистика раздачи
Размер:  640 MB   |    Зарегистрирован:  13 дней   |    Скачан:  0 раз
DL-List: Нет

Полного источника не было: Никогда

 
     
 
 

MAGNAT ®

Пол:
Мужской
Стаж:
1 год 3 месяца
Сообщений:
8784

Полная изоляция /BBC Horizon: Total Isolation
Дата/Год выпуска: 2008
Страна: Великобритания
Жанр: документальный
Продолжительность: 00:49:01
Перевод: Субтитры
Русские субтитры: есть
Английские субтитры: есть
Формат субтитров: softsub (SRT)
Оригинальная аудиодорожка: английский
Режиссер: Rosie Taylor/ Рози Тейлор
Телеканал: BBC
Описание: Впервые за 40 лет Horizon воссоздал противоречивый эксперимент по сенсорной депривации. Шестерых испытуемых поместили в подземный бункер на 48 часов и оградили от внешних стимулов, чтобы узнать, как это повлияет на их мозг.
Первоначальные эксперименты, проведенные в 1950-х и 60-х годах профессором Дональдом Хеббом, считались слишком жестокими и были прекращены.
качество: TVRip
формат: AVI
Видео: XviD, 672x384 (1.750), 1683 kbps, 25.000 fps, 0.261 bit/pixel
Аудио: MPEG-1 Layer 3, 127kbps, 48000Hz, 2ch

MediaInfo

General
Complete name : C:\Users\username\Downloads\полная изоляция1\полная изоляция\полная изоляция.avi
Format : AVI
Format/Info : Audio Video Interleave
File size : 640 MiB
Duration : 49 min 1 s
Overall bit rate mode : Variable
Overall bit rate : 1 825 kb/s
Video
ID : 0
Format : MPEG-4 Visual
Format profile : Advanced Simple@L5
Format settings : BVOP1
Format settings, BVOP : 1
Format settings, QPel : No
Format settings, GMC : No warppoints
Format settings, Matrix : Default (H.263)
Codec ID : XVID
Codec ID/Hint : XviD
Duration : 49 min 1 s
Bit rate : 1 685 kb/s
Width : 672 pixels
Height : 384 pixels
Display aspect ratio : 16:9
Frame rate : 25.000 FPS
Color space : YUV
Chroma subsampling : 4:2:0
Bit depth : 8 bits
Scan type : Progressive
Compression mode : Lossy
Bits/(Pixel*Frame) : 0.261
Stream size : 591 MiB (92%)
Writing library : XviD 1.2.0.dev47 (UTC 2006-11-01)
Audio
ID : 1
Format : MPEG Audio
Format version : Version 1
Format profile : Layer 3
Format settings : Joint stereo
Codec ID : 55
Codec ID/Hint : MP3
Duration : 49 min 1 s
Bit rate mode : Variable
Bit rate : 127 kb/s
Nominal bit rate : 144 kb/s
Channel(s) : 2 channels
Sampling rate : 48.0 kHz
Frame rate : 41.667 FPS (1152 SPF)
Compression mode : Lossy
Stream size : 44.6 MiB (7%)
Alignment : Aligned on interleaves
Interleave, duration : 24 ms (0.60 video frame)
Interleave, preload duration : 579 ms
Writing library : LAME3.97
Encoding settings : -m j -V 4 -q 2 -lowpass 17.5 --abr 144

Скриншоты

[cybertorrent.ru].t21132.torrent 
Торрент: Зарегистрирован [ 2020-06-25 18:46 ] · 11F93A2FF5D58006679473EA161DF05DC736C3AF

Скачать .torrent

Скачать

13 KB

Статус: проверено
Скачан: 0 раз
Размер: 640 MB  ·  Тип торрента
terms.php
Профиль [ЛС]
Показать сообщения:    

Текущее время: 09-Июл 01:54

Часовой пояс: UTC ± 0



Вы не можете начинать темы
Вы не можете отвечать на сообщения
Вы не можете редактировать свои сообщения
Вы не можете удалять свои сообщения
Вы не можете голосовать в опросах
Вы не можете прикреплять файлы к сообщениям
Вы можете скачивать файлы