Статистика раздачи
Размер:  1,72 GB   |    Зарегистрирован:  13 дней   |    Скачан:  0 раз
DL-List: Нет

Полного источника не было: Никогда

 
     
 
 

MAGNAT ®

Пол:
Мужской
Стаж:
1 год 3 месяца
Сообщений:
8784

BBC. Замки: История укрепления Британии (1-3 cерии из 3-х) / Castles: Britain's Fortified History
Дата/Год выпуска: 2014
Страна: Великобритания
Жанр: документальный, история
Продолжительность: 3 серии ~ 00:50:02
Перевод: Профессиональный (двухголосый закадровый)
Доп. инфо о переводе: SDI-Media по заказу ТПО "Red- Media"
Русские субтитры: нет
Режиссер: Бен Соутвел / Ben Southwell
Ведущий: Доктор Сэм Уиллис / Dr. Sam Willis
Телеканал: 365 Дней
Описание: Историк Сэм Уиллис рассказывает об истории британских замков, а также об уникальной роли, которую они сыграли в британской истории, искусстве и литературе
качество: DVBRip
формат: AVI
Видео: Xvid (4:3) 704x416 25fps 1499kbps
Аудио: MP3 48000Hz stereo 128kbps 2 channels

Список выпусков/серий

01. Орудия вторжения / Instruments of Invasion
02. Королевство завоеваний / Kingdom of Conquest
03. Защита королевства / Defence of the Realm

MediaInfo

General
Complete name : F:\Замки. История укрепления Британии\Замки. История укрепления Британии AVI\3. Защита королевства.avi
Format : AVI
Format/Info : Audio Video Interleave
File size : 587 MiB
Duration : 50mn 1s
Overall bit rate : 1 641 Kbps
Video
ID : 0
Format : MPEG-4 Visual
Format profile : Advanced Simple@L5
Format settings, BVOP : 2
Format settings, QPel : No
Format settings, GMC : No warppoints
Format settings, Matrix : Default (H.263)
Codec ID : XVID
Codec ID/Hint : XviD
Duration : 50mn 1s
Bit rate : 1 500 Kbps
Width : 704 pixels
Height : 416 pixels
Display aspect ratio : 1.692
Frame rate : 25.000 fps
Color space : YUV
Chroma subsampling : 4:2:0
Bit depth : 8 bits
Scan type : Progressive
Compression mode : Lossy
Bits/(Pixel*Frame) : 0.205
Stream size : 537 MiB (91%)
Writing library : XviD 64
Audio
ID : 1
Format : MPEG Audio
Format version : Version 1
Format profile : Layer 3
Codec ID : 55
Codec ID/Hint : MP3
Duration : 50mn 1s
Source duration : 50mn 1s
Bit rate mode : Constant
Bit rate : 128 Kbps
Channel(s) : 2 channels
Sampling rate : 48.0 KHz
Compression mode : Lossy
Stream size : 45.8 MiB (8%)
Alignment : Split accross interleaves
Interleave, duration : 24 ms (0.60 video frame)
[cybertorrent.ru].t21133.torrent 
Торрент: Зарегистрирован [ 2020-06-25 18:46 ] · 35FCDFA9A800DBD15E1AB158948567CFC5DFDE12

Скачать .torrent

Скачать

18 KB

Статус: проверено
Скачан: 0 раз
Размер: 1,72 GB  ·  Тип торрента
terms.php
Профиль [ЛС]
Показать сообщения:    

Текущее время: 09-Июл 01:19

Часовой пояс: UTC ± 0



Вы не можете начинать темы
Вы не можете отвечать на сообщения
Вы не можете редактировать свои сообщения
Вы не можете удалять свои сообщения
Вы не можете голосовать в опросах
Вы не можете прикреплять файлы к сообщениям
Вы можете скачивать файлы