Статистика раздачи
Размер:  11 GB   |    Зарегистрирован:  13 дней   |    Скачан:  0 раз
DL-List: Нет

Полного источника не было: Никогда

 
     
 
 

MAGNAT ®

Пол:
Мужской
Стаж:
1 год 3 месяца
Сообщений:
8784

Самогонщики(6 сезон) / Moonshiners
Дата/Год выпуска: 2016
Страна: США
Жанр: Документальный,познавательный
Продолжительность: ~00:44:00
Перевод: Одноголосый закадровый
Русские субтитры: нет
Телеканал: Discovery
Описание: Программа «Самогонщики» рассказывает о преступниках, продолжающих сомнительную традицию, зачастую в лесу неподалеку от дома с использованием замаскированного оборудования, и о местных властях, которые пытаются наставить их на путь истинный. Загляните «на кухню» этого нелегального бизнеса, которую практически никогда не увидишь по телевизору, включая посвящение в самогонщики – зажигание винокурни в первый раз. Вода, сахар, зерно и дрожжи – вот основные ингредиенты настоящего самогона. Сезон самогоноварения продолжается с июня по октябрь, и это не случайно, ведь именно на этот период приходится сбор урожая зерновых, а обильная лесная листва помогает скрыть незаконную деятельность. Для самых усердных производителей три летних месяца могут принести немалые деньги. Те, кому улыбнулась удача – настоящие счастливчики, но каждый неверный шаг может стоить тюремного заключения!
качество: TVRip
формат: AVI
Видео: MPEG-4 720х400(16:9) 1600kb/s 25.000 FPS
Аудио: AC-3 192kb/s 48.0kHz 2 channels

Список выпусков/серий

01 Whiskey Rebellion
02 Take Me to the River
03 Hard Start
04 Luck of the Irish
05 Big River Redemption
06 Whiskey Time Machine
07 Dog Days of Shining
08 Smokey Mountain Gin
09 Green Dragon
10 Big City Bootleg
11 Big Wheels Keep on Turning
12 The Green Devil
13 Thunder Pumpkins
14 Two Pot Bang Bang
15 Intruder Alert
16 Last Call

MediaInfo

General
Complete name : H:\Заготовки\Самогонщики 6\Самогонщики 03.avi
Format : AVI
Format/Info : Audio Video Interleave
File size : 563 MiB
Duration : 43 min 39 s
Overall bit rate : 1 802 kb/s
Writing application : VirtualDubMod 1.5.10.3 | www.virtualdub-fr.org || (build 2550/release)
Writing library : VirtualDubMod build 2550/release
Video
ID : 0
Format : MPEG-4 Visual
Format profile : Advanced Simple@L5
Format settings : BVOP1 / Custom Matrix
Format settings, BVOP : 1
Format settings, QPel : No
Format settings, GMC : No warppoints
Format settings, Matrix : Custom
Codec ID : XVID
Codec ID/Hint : XviD
Duration : 43 min 39 s
Bit rate : 1 600 kb/s
Width : 720 pixels
Height : 400 pixels
Display aspect ratio : 16:9
Frame rate : 25.000 FPS
Color space : YUV
Chroma subsampling : 4:2:0
Bit depth : 8 bits
Scan type : Progressive
Compression mode : Lossy
Bits/(Pixel*Frame) : 0.222
Stream size : 500 MiB (89%)
Writing library : XviD 1.2.1 (UTC 2008-12-04)
Audio
ID : 1
Format : AC-3
Format/Info : Audio Coding 3
Codec ID : 2000
Duration : 43 min 39 s
Bit rate mode : Constant
Bit rate : 192 kb/s
Channel(s) : 2 channels
Channel positions : Front: L R
Sampling rate : 48.0 kHz
Frame rate : 31.250 FPS (1536 SPF)
Bit depth : 16 bits
Compression mode : Lossy
Stream size : 60.0 MiB (11%)
Alignment : Split accross interleaves
Interleave, duration : 40 ms (1.00 video frame)
Interleave, preload duratio : 500 ms
Service kind : Complete Main

Скриншоты

[cybertorrent.ru].t21135.torrent 
Торрент: Зарегистрирован [ 2020-06-25 18:49 ] · 3954FE5BEA92C6FA37FC085849AE5F47052F8C0D

Скачать .torrent

Скачать

57 KB

Статус: проверено
Скачан: 0 раз
Размер: 11 GB  ·  Тип торрента
terms.php
Профиль [ЛС]
Показать сообщения:    

Текущее время: 09-Июл 02:37

Часовой пояс: UTC ± 0



Вы не можете начинать темы
Вы не можете отвечать на сообщения
Вы не можете редактировать свои сообщения
Вы не можете удалять свои сообщения
Вы не можете голосовать в опросах
Вы не можете прикреплять файлы к сообщениям
Вы можете скачивать файлы