Статистика раздачи
Размер:  9,01 GB   |    Зарегистрирован:  13 дней   |    Скачан:  0 раз
DL-List: Нет

Полного источника не было: Никогда

 
     
 
 

MAGNAT ®

Пол:
Мужской
Стаж:
1 год 3 месяца
Сообщений:
8784

Самогонщики(5 сезон) / Moonshiners
Дата/Год выпуска: 2015
Страна: США
Жанр: Документальный,познавательный
Продолжительность: ~00:44:00
Перевод: Одноголосый закадровый
Русские субтитры: нет
Телеканал: Discovery
Описание: Программа «Самогонщики» рассказывает о преступниках, продолжающих сомнительную традицию, зачастую в лесу неподалеку от дома с использованием замаскированного оборудования, и о местных властях, которые пытаются наставить их на путь истинный. Загляните «на кухню» этого нелегального бизнеса, которую практически никогда не увидишь по телевизору, включая посвящение в самогонщики – зажигание винокурни в первый раз. Вода, сахар, зерно и дрожжи – вот основные ингредиенты настоящего самогона. Сезон самогоноварения продолжается с июня по октябрь, и это не случайно, ведь именно на этот период приходится сбор урожая зерновых, а обильная лесная листва помогает скрыть незаконную деятельность. Для самых усердных производителей три летних месяца могут принести немалые деньги. Те, кому улыбнулась удача – настоящие счастливчики, но каждый неверный шаг может стоить тюремного заключения!
качество: TVRip
формат: AVI
Видео: MPEG-4 720х400(16:9) 1541kb/s 30.000 FPS
Аудио: AC-3 192kb/s 48.0kHz 2 channels

Список выпусков/серий

01 American Spirits
02 Whiskey Burn
03 Gone A-Rye
04 Still Life
05 Rain or Shine
06 Scotch on the Rocks
07 Six Feet Undercover
08 Out on a Limb
09 Trouble Brewing
10 Caved In
11 Cherry Bounce
12 Shine 'Til You Drop
13 Still Regretting
14 Virgin Whiskey
15 Presidential Shine
16 End of an Era
17 Need for Speed

MediaInfo

General
Complete name : H:\Заготовки\Самогонщики 5\Самогонщики 03.avi
Format : AVI
Format/Info : Audio Video Interleave
File size : 544 MiB
Duration : 43 min 37 s
Overall bit rate : 1 744 kb/s
Writing application : VirtualDubMod 1.5.10.3 | www.virtualdub-fr.org || (build 2550/release)
Writing library : VirtualDubMod build 2550/release
Video
ID : 0
Format : MPEG-4 Visual
Format profile : Advanced Simple@L5
Format settings : BVOP1 / Custom Matrix
Format settings, BVOP : 1
Format settings, QPel : No
Format settings, GMC : No warppoints
Format settings, Matrix : Custom
Codec ID : XVID
Codec ID/Hint : XviD
Duration : 43 min 37 s
Bit rate : 1 541 kb/s
Width : 720 pixels
Height : 400 pixels
Display aspect ratio : 16:9
Frame rate : 30.000 FPS
Color space : YUV
Chroma subsampling : 4:2:0
Bit depth : 8 bits
Scan type : Progressive
Compression mode : Lossy
Bits/(Pixel*Frame) : 0.178
Stream size : 481 MiB (88%)
Writing library : XviD 73
Audio
ID : 1
Format : AC-3
Format/Info : Audio Coding 3
Codec ID : 2000
Duration : 43 min 37 s
Bit rate mode : Constant
Bit rate : 192 kb/s
Channel(s) : 2 channels
Channel positions : Front: L R
Sampling rate : 48.0 kHz
Frame rate : 31.250 FPS (1536 SPF)
Bit depth : 16 bits
Compression mode : Lossy
Stream size : 59.9 MiB (11%)
Alignment : Split accross interleaves
Interleave, duration : 33 ms (1.00 video frame)
Interleave, preload duratio : 500 ms
Service kind : Complete Main

Скриншоты

[cybertorrent.ru].t21136.torrent 
Торрент: Зарегистрирован [ 2020-06-25 18:50 ] · 99737FE3CD389F1F21748B014A4BF8BC9BCBA61A

Скачать .torrent

Скачать

47 KB

Статус: проверено
Скачан: 0 раз
Размер: 9,01 GB  ·  Тип торрента
terms.php
Профиль [ЛС]
Показать сообщения:    

Текущее время: 09-Июл 02:01

Часовой пояс: UTC ± 0



Вы не можете начинать темы
Вы не можете отвечать на сообщения
Вы не можете редактировать свои сообщения
Вы не можете удалять свои сообщения
Вы не можете голосовать в опросах
Вы не можете прикреплять файлы к сообщениям
Вы можете скачивать файлы