Статистика раздачи
Размер:  1,53 GB   |    Зарегистрирован:  13 дней   |    Скачан:  0 раз
DL-List: Нет

Полного источника не было: Никогда

 
     
 
 

MAGNAT ®

Пол:
Мужской
Стаж:
1 год 3 месяца
Сообщений:
8784

Самогонщики(3 сезон) / Moonshiners
Дата/Год выпуска: 2013
Страна: США
Жанр: Документальный, познавательный, криминал
Продолжительность: ~00:44:00
Перевод: Одноголосый закадровый
Русские субтитры: нет
Режиссер: Discovery
Телеканал: Discovery
Описание: Программа «Самогонщики» рассказывает о преступниках, продолжающих сомнительную традицию, зачастую в лесу неподалеку от дома с использованием замаскированного оборудования, и о местных властях, которые пытаются наставить их на путь истинный. Загляните «на кухню» этого нелегального бизнеса, которую практически никогда не увидишь по телевизору, включая посвящение в самогонщики – зажигание винокурни в первый раз. Вода, сахар, зерно и дрожжи – вот основные ингредиенты настоящего самогона. Сезон самогоноварения продолжается с июня по октябрь, и это не случайно, ведь именно на этот период приходится сбор урожая зерновых, а обильная лесная листва помогает скрыть незаконную деятельность. Для самых усердных производителей три летних месяца могут принести немалые деньги. Те, кому улыбнулась удача – настоящие счастливчики, но каждый неверный шаг может стоить тюремного заключения!
качество: TVRip
формат: MP4
Видео: MPEG-4,720х400,(16:9),312 kb/s,25.000 FPS
Аудио: mp4,54.7 kb/s,44.1 kHz,2 channels

Список выпусков/серий

01 Time to Shine
02 A Shiner in Kentucky
03 Swamp Shiners
04 More Shiners More Problems
05 Hush Money
06 First Run
07 Blue Moonshine
08 Rival Shiners
09 Bootlegging Blowups
10 Moonshine War
11 Firewater
12 Aftershock
13 Liquid Courage

MediaInfo

General
Complete name : H:\Заготовки\Самогонщики 3\Самогонщики 03.mp4
Format : MPEG-4
Format profile : Base Media
Codec ID : isom (isom/iso2/avc1/mp41)
File size : 117 MiB
Duration : 43 min 52 s
Overall bit rate mode : Variable
Overall bit rate : 373 kb/s
Encoded date : UTC 1970-01-01 00:00:00
Tagged date : UTC 1970-01-01 00:00:00
Writing application : Lavf52.93.0
Video
ID : 1
Format : AVC
Format/Info : Advanced Video Codec
Format profile : High@L3
Format settings : CABAC / 4 Ref Frames
Format settings, CABAC : Yes
Format settings, ReFrames : 4 frames
Codec ID : avc1
Codec ID/Info : Advanced Video Coding
Duration : 43 min 52 s
Bit rate : 312 kb/s
Width : 720 pixels
Height : 400 pixels
Display aspect ratio : 16:9
Frame rate mode : Constant
Frame rate : 25.000 FPS
Color space : YUV
Chroma subsampling : 4:2:0
Bit depth : 8 bits
Scan type : Progressive
Bits/(Pixel*Frame) : 0.043
Stream size : 97.9 MiB (84%)
Writing library : x264 core 118
Encoding settings : cabac=1 / ref=3 / deblock=1:0:0 / analyse=0x3:0x113 / me=hex / subme=7 / psy=1 / psy_rd=1.00:0.00 / mixed_ref=1 / me_range=16 / chroma_me=1 / trellis=1 / 8x8dct=1 / cqm=0 / deadzone=21,11 / fast_pskip=1 / chroma_qp_offset=-2 / threads=24 / sliced_threads=0 / nr=0 / decimate=1 / interlaced=0 / bluray_compat=0 / constrained_intra=0 / bframes=3 / b_pyramid=2 / b_adapt=1 / b_bias=0 / direct=1 / weightb=1 / open_gop=0 / weightp=2 / keyint=25 / keyint_min=13 / scenecut=40 / intra_refresh=0 / rc_lookahead=25 / rc=2pass / mbtree=1 / bitrate=312 / ratetol=1.0 / qcomp=0.60 / qpmin=10 / qpmax=51 / qpstep=4 / cplxblur=20.0 / qblur=0.5 / ip_ratio=1.41 / aq=1:1.00
Encoded date : UTC 1970-01-01 00:00:00
Tagged date : UTC 1970-01-01 00:00:00
Audio
ID : 2
Format : AAC
Format/Info : Advanced Audio Codec
Format profile : LC
Codec ID : mp4a-40-2
Duration : 43 min 52 s
Bit rate mode : Variable
Bit rate : 54.7 kb/s
Channel(s) : 2 channels
Channel(s)_Original : 1 channel
Channel positions : Front: C
Sampling rate : 44.1 kHz
Frame rate : 43.066 FPS (1024 SPF)
Compression mode : Lossy
Stream size : 17.2 MiB (15%)
Encoded date : UTC 1970-01-01 00:00:00
Tagged date : UTC 1970-01-01 00:00:00

Скриншоты


[cybertorrent.ru].t21138.torrent 
Торрент: Зарегистрирован [ 2020-06-25 18:51 ] · 0CDADC09E1C6099E394ED56C46E5625446EB6D85

Скачать .torrent

Скачать

32 KB

Статус: проверено
Скачан: 0 раз
Размер: 1,53 GB  ·  Тип торрента
terms.php
Профиль [ЛС]
Показать сообщения:    

Текущее время: 09-Июл 00:50

Часовой пояс: UTC ± 0



Вы не можете начинать темы
Вы не можете отвечать на сообщения
Вы не можете редактировать свои сообщения
Вы не можете удалять свои сообщения
Вы не можете голосовать в опросах
Вы не можете прикреплять файлы к сообщениям
Вы можете скачивать файлы