Статистика раздачи
Размер:  640 MB   |    Зарегистрирован:  13 дней   |    Скачан:  0 раз
DL-List: Нет

Полного источника не было: Никогда

 
     
 
 

MAGNAT ®

Пол:
Мужской
Стаж:
1 год 3 месяца
Сообщений:
8784

Пандемия: COVID-19 / Pandemic: COVID-19
Дата/Год выпуска: 2020
Страна: США
Жанр: документальный
Продолжительность: 00:43:44
Перевод: Не требуется
Русские субтитры: нет
Оригинальная аудиодорожка: русский
Телеканал: Discovery ChannelОписание: Часовой спецвыпуск от Discovery, в котором подробно расскажут о пандемии COVID-19. Эксперты прольют свет на появление и пути передачи вируса, который изначально ставил в тупик врачей и ученых, столкнувшихся с первыми зараженными. Особое внимание будет также уделено тому, как в течение нескольких недель COVID-19 распространился по всему Китаю и за его пределами, и драматической истории эпидемии в США, начавшейся с Сиэтла. Эксперты объяснят, почему коронавирус уникален, почему мир был так не подготовлен к нему и какие меры нужно было предпринять, чтобы максимально сдержать его распространение.
качество: DVB
формат: TS/M2TS
Видео: MPEG4 Video (H264) 720x576 (20:11) 1 751 kb/s 25fps
Аудио: MPEG Audio 192kbps 48000Hz stereo

MediaInfo

General
ID : 1 (0x1)
Complete name : D:\Мои раздачи\Документалистика\Pandemic. COVID-19 (Discovery Channel).ts
Format : MPEG-TS
File size : 640 MiB
Duration : 43 min 43 s
Overall bit rate mode : Variable
Overall bit rate : 2 046 kb/s
Video
ID : 200 (0xC8)
Menu ID : 290 (0x122)
Format : AVC
Format/Info : Advanced Video Codec
Format profile : Main@L3
Format settings : CABAC / 4 Ref Frames
Format settings, CABAC : Yes
Format settings, ReFrames : 4 frames
Codec ID : 27
Duration : 43 min 43 s
Bit rate : 1 751 kb/s
Width : 720 pixels
Height : 576 pixels
Display aspect ratio : 16:9
Frame rate : 25.000 FPS
Standard : PAL
Color space : YUV
Chroma subsampling : 4:2:0
Bit depth : 8 bits
Scan type : MBAFF
Scan type, store method : Interleaved fields
Scan order : Top Field First
Bits/(Pixel*Frame) : 0.169
Stream size : 548 MiB (86%)
Audio
ID : 202 (0xCA)
Menu ID : 290 (0x122)
Format : MPEG Audio
Format version : Version 1
Format profile : Layer 2
Format settings : Joint stereo / Intensity Stereo + MS Stereo
Codec ID : 3
Duration : 43 min 43 s
Bit rate mode : Constant
Bit rate : 192 kb/s
Channel(s) : 2 channels
Sampling rate : 48.0 kHz
Frame rate : 41.667 FPS (1152 SPF)
Compression mode : Lossy
Stream size : 60.1 MiB (9%)
Language : English

Скриншоты

[cybertorrent.ru].t21139.torrent 
Торрент: Зарегистрирован [ 2020-06-25 18:51 ] · AB34A8D266269D79C3CBF318C843A0535255570F

Скачать .torrent

Скачать

13 KB

Статус: проверено
Скачан: 0 раз
Размер: 640 MB  ·  Тип торрента
terms.php
Профиль [ЛС]
Показать сообщения:    

Текущее время: 09-Июл 02:43

Часовой пояс: UTC ± 0



Вы не можете начинать темы
Вы не можете отвечать на сообщения
Вы не можете редактировать свои сообщения
Вы не можете удалять свои сообщения
Вы не можете голосовать в опросах
Вы не можете прикреплять файлы к сообщениям
Вы можете скачивать файлы