Статистика раздачи
Размер:  746 MB   |    Зарегистрирован:  13 дней   |    Скачан:  0 раз
DL-List: Нет

Полного источника не было: Никогда

 
     
 
 

MAGNAT ®

Пол:
Мужской
Стаж:
1 год 3 месяца
Сообщений:
8784

Юлий Цезарь: первый великий диктатор
Julius Caesar Revealed- Дата/Год выпуска: 2018
Страна: Великобритания
Жанр: документальный, исторический
Продолжительность: 00:59:10
Перевод: Профессиональный (двухголосый закадровый) Компания "Видеофильм ТВ"
Русские субтитры: нет
Оригинальная аудиодорожка: нет
Режиссер: Расселл Энгланд / Russell England, Александер Лейт / Alexander Leith
Телеканал: История
Описание: Британский антиковед, кембриджский профессор Мэри Бирд спрашивает, что мы на самом деле знаем о Юлии Цезаре? У нее есть свой взгляд на то, как он стал авторитарным правителем Рима, тактику его военных кампаний, его использование пиара и причины его убийства.
Доп. информация: Intelsat 15 (85.0°E) DVB-S
качество: SATRip-AVC
формат: MKV
Видео: AVC (H.264), 712x384 (1.85:1), 25 fps, ~1599 kbps avg, 0.234 bit/pixel
Аудио: MPEG Audio 2, 2 ch, 48 kHz, ~160.00 kbps avg - русский

MediaInfo

General
Unique ID : 314469317606988342986818665700290420121 (0xEC949668D3B13A831FC045B1DC835D99)
Complete name : [apreder]Julius_Caesar_Revealed(2018)SATRip.mkv
Format : Matroska
Format version : Version 2
File size : 746 MiB
Duration : 59 min 10 s
Overall bit rate : 1 762 kb/s
Movie name : Julius Caesar Revealed
Released date : 2018-02-12
Encoded date : UTC 2020-04-04 09:57:47
Writing application : mkvmerge v44.0.0 ('Domino') 64-bit
Writing library : libebml v1.3.10 + libmatroska v1.5.2
Cover : Yes
Attachments : cover.jpg / small_cover.jpg
ACTOR : Mary Beard
DIRECTOR : Russell England, Alexander Leith
GENRE : Documentary, Biography, History
IMDB : tt8009518
KEYWORDS : rutracker.org
LAW_RATING : 12+
Video
ID : 1
Format : AVC
Format/Info : Advanced Video Codec
Format profile : High@L4.1
Format settings : CABAC / 9 Ref Frames
Format settings, CABAC : Yes
Format settings, Reference frames : 9 frames
Codec ID : V_MPEG4/ISO/AVC
Duration : 59 min 10 s
Bit rate : 1 599 kb/s
Width : 712 pixels
Height : 384 pixels
Display aspect ratio : 1.85:1
Frame rate mode : Constant
Frame rate : 25.000 FPS
Color space : YUV
Chroma subsampling : 4:2:0
Bit depth : 8 bits
Scan type : Progressive
Bits/(Pixel*Frame) : 0.234
Stream size : 663 MiB (89%)
Writing library : x264 core 159 r2991 1771b55
Encoding settings : cabac=1 / ref=9 / deblock=1:-1:-1 / analyse=0x3:0x133 / me=umh / subme=10 / psy=1 / psy_rd=1.00:0.15 / mixed_ref=1 / me_range=24 / chroma_me=1 / trellis=2 / 8x8dct=1 / cqm=0 / deadzone=21,11 / fast_pskip=1 / chroma_qp_offset=-3 / threads=12 / lookahead_threads=2 / sliced_threads=0 / nr=0 / decimate=1 / interlaced=0 / bluray_compat=0 / constrained_intra=0 / bframes=8 / b_pyramid=2 / b_adapt=2 / b_bias=0 / direct=3 / weightb=1 / open_gop=0 / weightp=2 / keyint=250 / keyint_min=25 / scenecut=40 / intra_refresh=0 / rc_lookahead=60 / rc=2pass / mbtree=1 / bitrate=1599 / ratetol=1.0 / qcomp=0.60 / qpmin=0 / qpmax=69 / qpstep=4 / cplxblur=20.0 / qblur=0.5 / vbv_maxrate=62500 / vbv_bufsize=78125 / nal_hrd=none / filler=0 / ip_ratio=1.40 / aq=1:1.00
Default : Yes
Forced : No
Duration_Source : General_Duration
Audio
ID : 2
Format : MPEG Audio
Format version : Version 1
Format profile : Layer 2
Codec ID : A_MPEG/L2
Codec ID/Hint : MP2
Duration : 59 min 10 s
Bit rate mode : Constant
Bit rate : 160 kb/s
Channel(s) : 2 channels
Sampling rate : 48.0 kHz
Compression mode : Lossy
Stream size : 67.7 MiB (9%)
Language : Russian
Default : Yes
Forced : No
Duration_Source : General_Duration

Скриншоты


Резервные скриншоты


- [4'881]
[cybertorrent.ru].t21143.torrent 
Торрент: Зарегистрирован [ 2020-06-25 19:10 ] · 82605D34AADC0D63F82EC56A4F9890D2DDF445FC

Скачать .torrent

Скачать

8 KB

Статус: проверено
Скачан: 0 раз
Размер: 746 MB  ·  Тип торрента
terms.php
Профиль [ЛС]
Показать сообщения:    

Текущее время: 09-Июл 01:03

Часовой пояс: UTC ± 0



Вы не можете начинать темы
Вы не можете отвечать на сообщения
Вы не можете редактировать свои сообщения
Вы не можете удалять свои сообщения
Вы не можете голосовать в опросах
Вы не можете прикреплять файлы к сообщениям
Вы можете скачивать файлы