Статистика раздачи
Размер:  2,8 GB   |    Зарегистрирован:  5 месяцев 1 день   |    Скачан:  0 раз
DL-List: Нет

Полного источника не было: Никогда

 
     
 
 

MAGNAT ®

Пол:
Мужской
Стаж:
1 год 7 месяцев
Сообщений:
9096

Расцвет древних цивилизаций / The Ascent of Civilisation
Дата/Год выпуска: 2016
Страна: Германия, Gruppe 5 Filmproduktion for ZDF Enterpr
Жанр: Документальный, история
Продолжительность: 3x ~ 00:51:46
Перевод: Студийный (одноголосый закадровый)
Доп. инфо о переводе: СВ-Дубль
Русские субтитры: есть
Формат субтитров: softsub (SRT)
Доп. информация о субтитрах: СВ-Дубль
Режиссер: Sahar Eslah / Сахар Есла
Телеканал: Культура
Описание: Алфавит, мореходство и торговля – основы глобализации. Их корни уходят на тысячи лет в прошлое – к карфагенянам. Германские племена сформировали карту Европы. Арабы, используя ценные знания древнего мира, совершили прорыв в математике и медицине. Все они создали новый мир. Карфагеняне, германцы, арабы – их достижения создали современную Европу.
качество: DVB
формат: MKV
Видео: 720x576 (16:9) AVC (H.264) High@L3, ~ 2079 kbps, 25 fps
Аудио: Русский 48 kHz, MPEG Layer 2, 2 ch, ~192.00 kbps avg

Список выпусков/серий

1-я серия. Карфагеняне / / Die Karthager
Карфагеняне положили начало мировой торговле без границ, которую мы сейчас воспринимаем как должное. Они одарили своих последователей смелостью высаживаться на неизведанных землях и обмениваться идеями и опытом с чужестранцами. Они основали старейшие города Европы и заложили основы современной городской жизни. В них был дух первооткрывателей, который вдохновил потомков смело переступать границы известного им мира. Но их самое главное достижение – это финикийская письменность, которая за несколько столетий широко распространилась и стала основой для создания алфавитов всех западных стран.
2-я серия. Германские племена / Die Germanen
Германские племена, имеющие самое разнообразное происхождение, до сих пор определяют лицо современной Германии – например, в названиях немецких земель. Потомки свевов сейчас называются швабами. Таинственные "бавары" стали "баварцами". А жители Гессена произошли от древних хаттов. Их влияние заметно по всей Европе. Англия, Испания, Скандинавия и Франция – все они имеют германскую основу. А языки, на которых говорят пятьсот миллионов человек, имеют глубинную связь с языками древних германцев.
3-я серия. Арабы / Die Araber
Они жили отдельными племенами как земледельцы, торговцы и кочевники. Впервые их объединил ислам с центральной фигурой пророка Мухаммеда. Арабы создали империю, что раскинулась на три континента. В их столице Багдаде был основан "Дом мудрости" – оазис науки. Таким образом в Европе распространялись знания древнего мира и Востока. Будь то медицина, архитектура или астрономия. Люди науки, они намного опережали своих современников.

MediaInfo

Complete name : D:\Торренты\Фильмы\Документальные\Расцвет древних цивилизаций_DVB_ S2\01. Карфагеняне.mkv
Format : Matroska
Format version : Version 4
File size : 858 MiB
Duration : 51 min 46 s
Overall bit rate : 2 317 kb/s
Encoded date : UTC 2020-04-03 09:22:40
Writing application : mkvmerge v6.6.0 ('The Edge Of The In Between') built on Dec 1 2013 17:55:00
Writing library : libebml v1.3.0 + libmatroska v1.4.1
Video
ID : 1
Format : AVC
Format/Info : Advanced Video Codec
Format profile : Main@L3
Format settings : CABAC / 4 Ref Frames
Format settings, CABAC : Yes
Format settings, Reference : 4 frames
Codec ID : V_MPEG4/ISO/AVC
Bit rate : 2 079 kb/s
Width : 720 pixels
Height : 576 pixels
Display aspect ratio : 16:9
Frame rate mode : Variable
Original frame rate : 25.000 FPS
Standard : Component
Color space : YUV
Chroma subsampling : 4:2:0
Bit depth : 8 bits
Scan type : Interlaced
Scan type, store method : Separated fields
Scan order : Top Field First
Default : Yes
Forced : No
Color range : Limited
Color primaries : BT.601 PAL
Transfer characteristics : BT.470 System B/G
Matrix coefficients : BT.470 System B/G
Audio
ID : 2
Format : MPEG Audio
Format version : Version 1
Format profile : Layer 2
Codec ID : A_MPEG/L2
Codec ID/Hint : MP2
Duration : 51 min 46 s
Bit rate mode : Constant
Bit rate : 192 kb/s
Channel(s) : 2 channels
Sampling rate : 48.0 kHz
Compression mode : Lossy
Stream size : 71.1 MiB (8%)
Language : Russian
Default : Yes
Forced : No
Text
ID : 3
Format : UTF-8
Codec ID : S_TEXT/UTF8
Codec ID/Info : UTF-8 Plain Text
Title : СВ-Дубль
Language : Russian
Default : No
Forced : No
Complete name : D:\Торренты\Фильмы\Документальные\Расцвет древних цивилизаций_DVB_ S2\02. Германские племена.mkv
Format : Matroska
Format version : Version 4
File size : 1 008 MiB
Duration : 50 min 6 s
Overall bit rate : 2 814 kb/s
Encoded date : UTC 2020-04-03 09:25:04
Writing application : mkvmerge v6.6.0 ('The Edge Of The In Between') built on Dec 1 2013 17:55:00
Writing library : libebml v1.3.0 + libmatroska v1.4.1
Video
ID : 1
Format : AVC
Format/Info : Advanced Video Codec
Format profile : Main@L3
Format settings : CABAC / 4 Ref Frames
Format settings, CABAC : Yes
Format settings, Reference : 4 frames
Codec ID : V_MPEG4/ISO/AVC
Bit rate : 2 566 kb/s
Width : 720 pixels
Height : 576 pixels
Display aspect ratio : 16:9
Frame rate mode : Variable
Original frame rate : 25.000 FPS
Standard : Component
Color space : YUV
Chroma subsampling : 4:2:0
Bit depth : 8 bits
Scan type : Interlaced
Scan type, store method : Separated fields
Scan order : Top Field First
Default : Yes
Forced : No
Color range : Limited
Color primaries : BT.601 PAL
Transfer characteristics : BT.470 System B/G
Matrix coefficients : BT.470 System B/G
Audio
ID : 2
Format : MPEG Audio
Format version : Version 1
Format profile : Layer 2
Codec ID : A_MPEG/L2
Codec ID/Hint : MP2
Duration : 50 min 6 s
Bit rate mode : Constant
Bit rate : 192 kb/s
Channel(s) : 2 channels
Sampling rate : 48.0 kHz
Compression mode : Lossy
Stream size : 68.8 MiB (7%)
Language : Russian
Default : Yes
Forced : No
Text
ID : 3
Format : UTF-8
Codec ID : S_TEXT/UTF8
Codec ID/Info : UTF-8 Plain Text
Title : СВ-Дубль
Language : Russian
Default : No
Forced : No
Complete name : D:\Торренты\Фильмы\Документальные\Расцвет древних цивилизаций_DVB_ S2\03. Арабы.mkv
Format : Matroska
Format version : Version 4
File size : 999 MiB
Duration : 50 min 53 s
Overall bit rate : 2 745 kb/s
Encoded date : UTC 2020-04-03 09:26:32
Writing application : mkvmerge v6.6.0 ('The Edge Of The In Between') built on Dec 1 2013 17:55:00
Writing library : libebml v1.3.0 + libmatroska v1.4.1
Video
ID : 1
Format : AVC
Format/Info : Advanced Video Codec
Format profile : Main@L3
Format settings : CABAC / 4 Ref Frames
Format settings, CABAC : Yes
Format settings, Reference : 4 frames
Codec ID : V_MPEG4/ISO/AVC
Bit rate : 2 498 kb/s
Width : 720 pixels
Height : 576 pixels
Display aspect ratio : 16:9
Frame rate mode : Variable
Original frame rate : 25.000 FPS
Standard : Component
Color space : YUV
Chroma subsampling : 4:2:0
Bit depth : 8 bits
Scan type : Interlaced
Scan type, store method : Separated fields
Scan order : Top Field First
Default : Yes
Forced : No
Color range : Limited
Color primaries : BT.601 PAL
Transfer characteristics : BT.470 System B/G
Matrix coefficients : BT.470 System B/G
Audio
ID : 2
Format : MPEG Audio
Format version : Version 1
Format profile : Layer 2
Codec ID : A_MPEG/L2
Codec ID/Hint : MP2
Duration : 50 min 53 s
Bit rate mode : Constant
Bit rate : 192 kb/s
Channel(s) : 2 channels
Sampling rate : 48.0 kHz
Compression mode : Lossy
Stream size : 69.9 MiB (7%)
Language : Russian
Default : Yes
Forced : No
Text
ID : 3
Format : UTF-8
Codec ID : S_TEXT/UTF8
Codec ID/Info : UTF-8 Plain Text
Title : СВ-Дубль
Language : Russian
Default : No
Forced : No
[cybertorrent.ru].t21144.torrent 
Торрент: Зарегистрирован [ 2020-06-25 19:11 ] · 44ED59BBC467CCF71647023B35D62F29058BFAAA

Скачать .torrent

Скачать

15 KB

Статус: проверено
Скачан: 0 раз
Размер: 2,8 GB  ·  Тип торрента
terms.php
Профиль [ЛС]
Показать сообщения:    

Текущее время: 27-Ноя 07:41

Часовой пояс: UTC ± 0



Вы не можете начинать темы
Вы не можете отвечать на сообщения
Вы не можете редактировать свои сообщения
Вы не можете удалять свои сообщения
Вы не можете голосовать в опросах
Вы не можете прикреплять файлы к сообщениям
Вы можете скачивать файлы