Статистика раздачи
Размер:  3,61 GB   |    Зарегистрирован:  13 дней   |    Скачан:  0 раз
DL-List: Нет

Полного источника не было: Никогда

 
     
 
 

MAGNAT ®

Пол:
Мужской
Стаж:
1 год 3 месяца
Сообщений:
8784

Расцвет древних цивилизаций / The Ascent of Civilisation
Дата/Год выпуска: 2014
Страна: Германия, Gruppe 5 Filmproduktion for ZDF Enterpr
Жанр: Документальный, история
Продолжительность: 3 х ~ 00:50:00
Перевод: Студийный (одноголосый закадровый)
Доп. инфо о переводе: Лексикон
Русские субтитры: есть
Формат субтитров: softsub (SRT)
Доп. информация о субтитрах: Лексикон
Режиссер: Cristina Trebbi / Кристина Требби
Телеканал: Культура
Описание: Какими на самом деле были викинги? Чего достигли римляне? И как повлияли достижения греков на современный мир? Программа развенчивает мифы и стереотипы о викингах, а также о таких древних цивилизациях, как греческая и римская. Программа поможет по-новому взглянуть на эти выдающиеся культуры и, возможно, изменит наше представление о них.
качество: DVB
формат: MKV
Видео: 720x576 (16:9) AVC (H.264) High@L3, ~ 3025 kbps, 25 fps
Аудио: Русский 48 kHz, MPEG Layer 2, 2 ch, ~192.00 kbps avg

Список выпусков/серий

01. Как греки изменили мир / How the Greeks Changed the World
Многие привычные для нас вещи появились в результате наблюдений и выводов великих умов Древней Греции. Без них могла бы не произойти промышленная революция, а в европейских странах сейчас, возможно, была бы совсем другая форма правления. Греки подарили Европе идеал красоты, заложили основы науки, литературы, искусства и спорта.
02. Как римляне изменили мир / How the Romans Changed the World
Древнеримские инженеры спроектировали акведук, и до XIX столетия их система водоснабжения считалась лучшей в Европе. Идея развитой инфраструктуры, объединявшей Римскую империю в единое целое, стала фундаментом для современных транспортных сетей. Законы, в основе которых лежит древнеримское право, действуют во всем мире, а политический принцип римлян "хлеба и зрелищ" актуален до сих пор.
03. Как викинги изменили мир / How the Vikings Changed the World
История викингов - это история диких народов севера, которые в начале Средневековья промышляли разбоем и держали в страхе всю Европу, а со временем создали прочные торговые связи с южными и восточными соседями. История о том, как язычники-скандинавы приняли христианство, основали несколько государств и превратились в датчан, норвежцев и шведов

MediaInfo

Complete name : D:\Торренты\Фильмы\Документальные\Расцвет древних цивилизаций_DVB_ S1\01. Как греки изменили мир.mkv
Format : Matroska
Format version : Version 4
File size : 1.15 GiB
Duration : 50 min 13 s
Overall bit rate : 3 283 kb/s
Encoded date : UTC 2020-04-03 09:16:25
Writing application : mkvmerge v6.6.0 ('The Edge Of The In Between') built on Dec 1 2013 17:55:00
Writing library : libebml v1.3.0 + libmatroska v1.4.1
Video
ID : 1
Format : AVC
Format/Info : Advanced Video Codec
Format profile : Main@L3
Format settings : CABAC / 4 Ref Frames
Format settings, CABAC : Yes
Format settings, Reference : 4 frames
Codec ID : V_MPEG4/ISO/AVC
Bit rate : 3 025 kb/s
Width : 720 pixels
Height : 576 pixels
Display aspect ratio : 16:9
Frame rate mode : Variable
Original frame rate : 25.000 FPS
Standard : Component
Color space : YUV
Chroma subsampling : 4:2:0
Bit depth : 8 bits
Scan type : Interlaced
Scan type, store method : Separated fields
Scan order : Top Field First
Default : Yes
Forced : No
Color range : Limited
Color primaries : BT.601 PAL
Transfer characteristics : BT.470 System B/G
Matrix coefficients : BT.470 System B/G
Audio
ID : 2
Format : MPEG Audio
Format version : Version 1
Format profile : Layer 2
Codec ID : A_MPEG/L2
Codec ID/Hint : MP2
Duration : 50 min 13 s
Bit rate mode : Constant
Bit rate : 192 kb/s
Channel(s) : 2 channels
Sampling rate : 48.0 kHz
Compression mode : Lossy
Stream size : 69.0 MiB (6%)
Language : Russian
Default : Yes
Forced : No
Text
ID : 3
Format : UTF-8
Codec ID : S_TEXT/UTF8
Codec ID/Info : UTF-8 Plain Text
Title : Лексикон
Language : Russian
Default : No
Forced : No
Complete name : D:\Торренты\Фильмы\Документальные\Расцвет древних цивилизаций_DVB_ S1\02. Как римляне изменили мир.mkv
Format : Matroska
Format version : Version 4
File size : 1.35 GiB
Duration : 50 min 39 s
Overall bit rate : 3 806 kb/s
Encoded date : UTC 2020-04-03 09:18:26
Writing application : mkvmerge v6.6.0 ('The Edge Of The In Between') built on Dec 1 2013 17:55:00
Writing library : libebml v1.3.0 + libmatroska v1.4.1
Video
ID : 1
Format : AVC
Format/Info : Advanced Video Codec
Format profile : Main@L3
Format settings : CABAC / 4 Ref Frames
Format settings, CABAC : Yes
Format settings, Reference : 4 frames
Codec ID : V_MPEG4/ISO/AVC
Bit rate : 3 538 kb/s
Width : 720 pixels
Height : 576 pixels
Display aspect ratio : 16:9
Frame rate mode : Variable
Original frame rate : 25.000 FPS
Standard : Component
Color space : YUV
Chroma subsampling : 4:2:0
Bit depth : 8 bits
Scan type : Interlaced
Scan type, store method : Separated fields
Scan order : Top Field First
Default : Yes
Forced : No
Color range : Limited
Color primaries : BT.601 PAL
Transfer characteristics : BT.470 System B/G
Matrix coefficients : BT.470 System B/G
Audio
ID : 2
Format : MPEG Audio
Format version : Version 1
Format profile : Layer 2
Codec ID : A_MPEG/L2
Codec ID/Hint : MP2
Duration : 50 min 39 s
Bit rate mode : Constant
Bit rate : 192 kb/s
Channel(s) : 2 channels
Sampling rate : 48.0 kHz
Compression mode : Lossy
Stream size : 69.6 MiB (5%)
Language : Russian
Default : Yes
Forced : No
Text
ID : 3
Format : UTF-8
Codec ID : S_TEXT/UTF8
Codec ID/Info : UTF-8 Plain Text
Title : Лексикон
Language : Russian
Default : No
Forced : No
Complete name : D:\Торренты\Фильмы\Документальные\Расцвет древних цивилизаций_DVB_ S1\03. Как викинги изменили мир.mkv
Format : Matroska
Format version : Version 4
File size : 1.11 GiB
Duration : 50 min 12 s
Overall bit rate : 3 172 kb/s
Encoded date : UTC 2020-04-03 09:20:09
Writing application : mkvmerge v6.6.0 ('The Edge Of The In Between') built on Dec 1 2013 17:55:00
Writing library : libebml v1.3.0 + libmatroska v1.4.1
Video
ID : 1
Format : AVC
Format/Info : Advanced Video Codec
Format profile : Main@L3
Format settings : CABAC / 4 Ref Frames
Format settings, CABAC : Yes
Format settings, Reference : 4 frames
Codec ID : V_MPEG4/ISO/AVC
Bit rate : 2 917 kb/s
Width : 720 pixels
Height : 576 pixels
Display aspect ratio : 16:9
Frame rate mode : Variable
Original frame rate : 25.000 FPS
Standard : Component
Color space : YUV
Chroma subsampling : 4:2:0
Bit depth : 8 bits
Scan type : Interlaced
Scan type, store method : Separated fields
Scan order : Top Field First
Default : Yes
Forced : No
Color range : Limited
Color primaries : BT.601 PAL
Transfer characteristics : BT.470 System B/G
Matrix coefficients : BT.470 System B/G
Audio
ID : 2
Format : MPEG Audio
Format version : Version 1
Format profile : Layer 2
Codec ID : A_MPEG/L2
Codec ID/Hint : MP2
Duration : 50 min 12 s
Bit rate mode : Constant
Bit rate : 192 kb/s
Channel(s) : 2 channels
Sampling rate : 48.0 kHz
Compression mode : Lossy
Stream size : 68.9 MiB (6%)
Language : Russian
Default : Yes
Forced : No
Text
ID : 3
Format : UTF-8
Codec ID : S_TEXT/UTF8
Codec ID/Info : UTF-8 Plain Text
Title : Лексикон
Language : Russian
Default : No
Forced : No
[cybertorrent.ru].t21145.torrent 
Торрент: Зарегистрирован [ 2020-06-25 19:12 ] · 08A099E04C16FB64B5F25A9ED5E795788CA0D461

Скачать .torrent

Скачать

19 KB

Статус: проверено
Скачан: 0 раз
Размер: 3,61 GB  ·  Тип торрента
terms.php
Профиль [ЛС]
Показать сообщения:    

Текущее время: 09-Июл 02:21

Часовой пояс: UTC ± 0



Вы не можете начинать темы
Вы не можете отвечать на сообщения
Вы не можете редактировать свои сообщения
Вы не можете удалять свои сообщения
Вы не можете голосовать в опросах
Вы не можете прикреплять файлы к сообщениям
Вы можете скачивать файлы