Статистика раздачи
Размер:  746 MB   |    Зарегистрирован:  5 месяцев 1 день   |    Скачан:  0 раз
DL-List: Нет

Полного источника не было: Никогда

 
     
 
 

MAGNAT ®

Пол:
Мужской
Стаж:
1 год 7 месяцев
Сообщений:
9096

Великая Хартия вольностей
David Starkey's Magna Carta- Дата/Год выпуска: 2015
Страна: Великобритания
Жанр: документальный, исторический
Продолжительность: 00:58:58
Перевод: Профессиональный (двухголосый закадровый) Компания "Видеофильм ТВ"
Русские субтитры: нет
Оригинальная аудиодорожка: нет
Режиссер: Кристофер Спенсер / Christopher Spencer
Телеканал: История
Описание: 15 июня 2015 года отмечалось 800-летие одного из самых важных событий в истории Британии и, пожалуй, всего человечества. Именно здесь в 1215 году в окружении баронов английский король Иоанн Безземельный приложил свою печать к документу, получившему название Великой хартии вольностей. Великую хартию вольностей называют едва ли не первым документом, в котором описывалось то, что позднее получит название прав человека и верховенства закона. Хартия впервые ограничивала власть монарха, а также гарантировала права и свободы, которые сейчас представляются не просто естественными, но базовыми — равенство перед законом, признание лица виновным только по решению суда, соразмерность преступления наказанию, неприкосновенность собственности и свобода передвижения. Многие положения Великой хартии вольностей вошли затем в конституции стран мира и во Всеобщую декларацию прав человека.
качество: SATRip-AVC
формат: MKV
Видео: AVC (H.264), 704x384 (1.85:1), 25 fps, ~1606 kbps avg, 0.238 bit/pixel
Аудио: MPEG Audio 2, 2 ch, 48 kHz, ~160.00 kbps avg - русский

MediaInfo

General
Unique ID : 257701918092833838085963825231678743038 (0xC1DF9586247875A6B5B0B7DE24B921FE)
Complete name : [apreder]David_Starkey's_Magna_Carta(2015)SATRip.mkv
Format : Matroska
Format version : Version 2
File size : 746 MiB
Duration : 58 min 58 s
Overall bit rate : 1 769 kb/s
Movie name : David Starkey's Magna Carta
Released date : 2015-01-26
Encoded date : UTC 2020-03-31 08:06:59
Writing application : mkvmerge v44.0.0 ('Domino') 64-bit
Writing library : libebml v1.3.10 + libmatroska v1.5.2
Cover : Yes
Attachments : cover.jpg / small_cover.jpg
ACTOR : David Starkey
DIRECTOR : Christopher Spencer
GENRE : Documentary
IMDB : tt4397802
KEYWORDS : rutracker.org
LAW_RATING : 12+
Video
ID : 1
Format : AVC
Format/Info : Advanced Video Codec
Format profile : High@L4.1
Format settings : CABAC / 9 Ref Frames
Format settings, CABAC : Yes
Format settings, Reference frames : 9 frames
Codec ID : V_MPEG4/ISO/AVC
Duration : 58 min 58 s
Bit rate : 1 606 kb/s
Width : 704 pixels
Height : 384 pixels
Display aspect ratio : 1.85:1
Frame rate mode : Constant
Frame rate : 25.000 FPS
Color space : YUV
Chroma subsampling : 4:2:0
Bit depth : 8 bits
Scan type : Progressive
Bits/(Pixel*Frame) : 0.238
Stream size : 664 MiB (89%)
Writing library : x264 core 159 r2991 1771b55
Encoding settings : cabac=1 / ref=9 / deblock=1:-1:-1 / analyse=0x3:0x133 / me=umh / subme=10 / psy=1 / psy_rd=1.00:0.15 / mixed_ref=1 / me_range=24 / chroma_me=1 / trellis=2 / 8x8dct=1 / cqm=0 / deadzone=21,11 / fast_pskip=1 / chroma_qp_offset=-3 / threads=12 / lookahead_threads=2 / sliced_threads=0 / nr=0 / decimate=1 / interlaced=0 / bluray_compat=0 / constrained_intra=0 / bframes=8 / b_pyramid=2 / b_adapt=2 / b_bias=0 / direct=3 / weightb=1 / open_gop=0 / weightp=2 / keyint=250 / keyint_min=25 / scenecut=40 / intra_refresh=0 / rc_lookahead=60 / rc=2pass / mbtree=1 / bitrate=1606 / ratetol=1.0 / qcomp=0.60 / qpmin=0 / qpmax=69 / qpstep=4 / cplxblur=20.0 / qblur=0.5 / vbv_maxrate=62500 / vbv_bufsize=78125 / nal_hrd=none / filler=0 / ip_ratio=1.40 / aq=1:1.00
Default : Yes
Forced : No
Audio
ID : 2
Format : MPEG Audio
Format version : Version 1
Format profile : Layer 2
Codec ID : A_MPEG/L2
Codec ID/Hint : MP2
Duration : 58 min 58 s
Bit rate mode : Constant
Bit rate : 160 kb/s
Channel(s) : 2 channels
Sampling rate : 48.0 kHz
Compression mode : Lossy
Stream size : 67.5 MiB (9%)
Language : Russian
Default : Yes
Forced : No

Скриншоты

Резервные скриншоты

-
[cybertorrent.ru].t21148.torrent 
Торрент: Зарегистрирован [ 2020-06-25 19:14 ] · 93CD907865F77A9FE5B67D46636AC3278FF54AA2

Скачать .torrent

Скачать

8 KB

Статус: проверено
Скачан: 0 раз
Размер: 746 MB  ·  Тип торрента
terms.php
Профиль [ЛС]
Показать сообщения:    

Текущее время: 27-Ноя 07:46

Часовой пояс: UTC ± 0



Вы не можете начинать темы
Вы не можете отвечать на сообщения
Вы не можете редактировать свои сообщения
Вы не можете удалять свои сообщения
Вы не можете голосовать в опросах
Вы не можете прикреплять файлы к сообщениям
Вы можете скачивать файлы